流氓兔214
一代宗师

[2024] [大陆] [动作] [全集] [BT下载][又见逍遥][全40集][国语][Web-MKV/24.6GB][2160p][中2024仙剑游戏改编]

-->

此剧非常还原经典游戏仙剑奇侠传1,并且用了很多的游戏里的BGM
对于游戏粉来说,是非常值得一看的!这里推荐一下!


海报





译  名 又见逍遥/仙剑/仙剑奇侠传
片  名 You Jian Xiao Yao
年  代 2024
国  家 中国
类  别 动作/奇幻/爱情/剧情/古装
语  言 汉语普通话
字  幕 中文硬字幕
评  分 6.4/10 from 16,440 users
链  接 https://movie.douban.com/subject/35314844
文件大小 24.6 GB
单集片长 45 Min
集  数 40
导  演 杨龙 Long Yang
主  演 何与 Yu He
     杨雨潼 Yutong Yang
     徐好 Hao Xu
     李川 Chuan Li
     胡意旋 Yixuan Hu
     叶盛佳 Shengjia Ye
     王劲松 Jinsong Wang
     吴樾 Yue Wu
     丁笑滢 Xiaoying Ding
     田雨 Yu Tian
     邱心志 Hsin-chih Chiu
     曾黎 Li Zeng

简介

  心怀大侠梦的店小⼆李逍遥(何与 饰),机缘巧合结识女娲后人赵灵儿(杨雨潼 饰),与其结伴寻找能破除天下旱灾的水灵珠,途中先后结识欢喜冤家林月如(徐好 饰),文弱书生刘晋元(李川 饰)等意气相投的伙伴,几人历经艰险寻找灵珠,⼀举粉碎妄图毁天灭地拜月教主(王劲松 饰)的惊天阴谋。

Video
Format                         : HEVC
Format/Info                    : High Efficiency Video Coding
Format profile                 : Main@L5@Main
Codec ID                       : V_MPEGH/ISO/HEVC
Duration                       : 45 min 9 s
Bit rate                       : 2 182 kb/s
Width                          : 3 840 pixels
Height                         : 2 160 pixels
Display aspect ratio           : 16:9
Frame rate mode                : Constant
Frame rate                     : 25.000 FPS
Color space                    : YUV
Chroma subsampling             : 4:2:0
Bit depth                      : 8 bits
Bits/(Pixel*Frame)             : 0.011
Stream size                    : 705 MiB (94%)
Color range                    : Limited
Color primaries                : BT.709
Transfer characteristics       : BT.709
Matrix coefficients            : BT.709

Audio
ID                             : 2
Format                         : AAC LC
Format/Info                    : Advanced Audio Codec Low Complexity
Codec ID                       : A_AAC-2
Duration                       : 45 min 9 s
Bit rate                       : 125 kb/s
Channel(s)                     : 2 channels
Channel layout                 : L R
Sampling rate                  : 48.0 kHz
Frame rate                     : 46.875 FPS (1024 SPF)
Compression mode               : Lossy
Stream size                    : 40.5 MiB (5%)


截图





1 个附件 售价 大小 下载 时间

又见逍遥.仙剑奇侠传.全40集.torrent 0 金币 128.78K 3920 次 12天前

#1楼
发帖时间:2024-05-11 18:20:33   |   回复数:3
Bill3
武林盟主
感谢楼主的分享!
12天前 #2楼
釉面
小有名气
好耶!
11天前 #3楼
流氓兔214
一代宗师
标记
8天前 #4楼
游客组