原生系统
一派掌门

[2016] [大陆] [武侠] [全集] [网盘下载][画江湖之不良人.真人网剧版][全2季.全26集][国语中字.无水印][WEB-MP4][1080P][Vampire][普码版]

-->


◎译  名 Buliangren / 画江湖之不良人网剧版

◎片  名 画江湖之不良人

◎年  代 2016

◎产  地 中国大陆

◎类  别 武侠 / 古装

◎语  言 汉语普通话

◎上映日期 2016-09-21(中国大陆)

◎豆瓣评分 8.2/10 from 21453 users

◎豆瓣链接 https://movie.douban.com/subject/26743541

◎集  数 26

◎片  长 40分钟

◎导  演 五百 Shubo Guo / 王伟 Wei Wang

◎编  剧 饶俊 Jun Rao / 李明超 Mingchao Li / 诸懿 Yi Zhu

◎主  演 郑业成 Yecheng Zheng

       李纯 Chun Li

       范世錡 Shiqi Fan

       蔡文静 Wenjing Cai

       季晨 Chen Ji

       马薇 Angelina Ma

       张静初 Jingchu Zhang

       王泷正 Longzheng Wang

       陈若轩 Ruoxuan Chen

       雯昭 Wenzhao

       王滋润 Zirun Wang

       刘峰超 Fengchao Liu

       杨帆 Fan Yang

       杨韬歌 Taoge Yang

       王沛禄 Peilu Wang

       蒋诗萌 Shimeng Jiang

       韩鹿 Lu Han

       戴菲 Divanna

       侍宣如 Xuanru Shi

       栾蕾英 Leiying Luan

       梁毅 Yi Liang

       秦际洋 Jiyang Qin

       王刚 Gang Wang

       李龙 Long Li

       何绍宏 Shao-hung Ho

       张继波 Jibo Zhang

       韩烨洲 Yezhou Han

       赵恒 Heng Zhao

       李成武 Chengwu Li

       张诗慧 Shihui Zhang

       高榆榆 Yuyu Gao

       王宾 Bin Wang

       王世帅 Shishuai Wang

       张喜来 Xilai Zhang

       李浩男 Hannan Li

       王佳宁 Jianing Wang

       范浩军 Hanjun Fan

       张伟夫 Weifu Zhang

       颜友志 Youzhi Yan

       马进文 Jinwen Ma

       陶奕希 Yixi Tao

       龚俊泽 Junze Gong

       陆莹 Jessica Luk

       王语嫚 Yuman Wang

       周媛媛 Yuanyuan Zhou

       贾玉华 Yuhua Jia

       冯晓琴 Xiaoqin Feng

       阳光 Guang Yang

       廖崇儒 Chongru Liao

       韩梦武 Mengwu Han

       李帅 Shuai Li

       冯凯 Kai Feng

       李橹进 Lujin Li

       周金凤 Jinfeng Zhou

       尹历博 Libo Yin

       王青茹 Qingru Wang

       张恒瑞 Hengrui Zhang

       王青青 Qingqing Wang

       于京京 Jingjing Yu


◎标  签 画江湖之不良人 | 真人版 | 武侠 | 古装 | 国产网剧 | 画江湖 | 网络剧 | 国产电视剧


◎简  介


  故事发生在唐朝末年,心存歹念的朱温兵变造反,企图谋权篡位,并且最终杀死了唐昭宗李晔,成功的取而代之登上了皇帝的宝座。大唐李氏一族遭此重创,和曾经的官府神秘组织“不良人”一起在江湖中销声匿迹,与此同时,神秘的龙泉剑亦下落不明,而龙泉剑中,隐藏着有关国库宝藏的秘密,据传,只有李氏的血脉才能够解开这个谜题。

  十皇子李星云(郑业成 饰)幸运的逃过此劫难,他和师妹陆林轩(李纯 饰)一起跟着师父阳叔子过着隐姓埋名的生活。然而,当李星云和陆林轩再度踏入江湖之时,命运的齿轮开始了转动,两人遇见了通文馆少主张子凡(范世錡 饰)和侍女姬如雪(蔡文静 饰),四人结为挚友,之后均被卷入了各大帮派明争暗斗的漩涡之中。



General

Complete name               : C:\Users\Vampire\Desktop\S01.E01.mp4

Format                      : MPEG-4

Format profile              : Base Media

Codec ID                    : isom (isom/iso2/avc1/mp41)

File size                   : 650 MiB

Duration                    : 38 min 31 s

Overall bit rate            : 2 360 kb/s

Writing application         : Lavf57.25.100


Video

ID                          : 1

Format                      : AVC

Format/Info                 : Advanced Video Codec

Format profile              : [email protected]

Format settings             : CABAC / 3 Ref Frames

Format settings, CABAC      : Yes

Format settings, Reference  : 3 frames

Codec ID                    : avc1

Codec ID/Info               : Advanced Video Coding

Duration                    : 38 min 31 s

Bit rate                    : 2 291 kb/s

Width                       : 1 920 pixels

Height                      : 816 pixels

Display aspect ratio        : 2.35:1

Frame rate mode             : Variable

Frame rate                  : 25.000 FPS

Minimum frame rate          : 25.000 FPS

Maximum frame rate          : 16 000.000 FPS

Color space                 : YUV

Chroma subsampling          : 4:2:0

Bit depth                   : 8 bits

Scan type                   : Progressive

Bits/(Pixel*Frame)          : 0.058

Stream size                 : 631 MiB (97%)

Writing library             : qiyi.com vtc-test

Color range                 : Limited

Color primaries             : BT.709

Transfer characteristics    : BT.709

Matrix coefficients         : BT.709

Codec configuration box     : avcC


Audio

ID                          : 2

Format                      : AAC LC SBR

Format/Info                 : Advanced Audio Codec Low Complexity with Spectral Band Replication

Commercial name             : HE-AAC

Format settings             : Explicit

Codec ID                    : mp4a-40-2

Duration                    : 38 min 31 s

Bit rate mode               : Constant

Bit rate                    : 63.9 kb/s

Channel(s)                  : 2 channels

Channel layout              : L R

Sampling rate               : 44.1 kHz

Frame rate                  : 21.533 FPS (2048 SPF)

Compression mode            : Lossy

Stream size                 : 17.6 MiB (3%)

Default                     : Yes

Alternate group             : 1


本人发布的种子请使用专业BT下载工具:

UT,Bitcomet,qBittorrent,Xdown开启上传后再下载!!!

使用迅雷或度盘离线可能会没速度!!!


视频的网盘资源均在视频后缀(如mp4或mkv)后又跟随了.xy(mp4.xy或mkv.xy)用以混淆官方视听!
并且加密了文件名,设置了独有的解压密码,请使用WinRAR解压,使用好压或其他可能会出错!
已完结剧集不再分集打包上传,整体打包后分卷,无法单独下载某一集,需要全部下载后一起解压,敬请知晓!
请各位下载的坛友先保存至自己的网盘,然后再进行下载!!!
不要直接在线观看或者解压,否则会很快被网盘官方发觉并和谐!


阿里云盘后缀名凡是“PDF”的,请在下载完成后将后缀名“PDF”修改为“rar”,即可正常解压,观看!

目前阿里云盘上传和下载均不限速,趁着这段“免费VIP”的时间,就暂时放弃度盘吧!


请下载完成的朋友自觉做种一段时间,小水管出种不易,且下且珍惜,谢谢!!!


解压请使用官方原版WinRAR,使用破解版或者好压等软件可能会出错,感谢所有赞赏的朋友!!!


#1楼
发帖时间:2021-10-13 01:29:59   |   回复数:2
absolutelyman
小有名气
我只想知道女帝呢
10天前 #2楼
liyouchai
隐世仙人♂
谢谢楼主分享资源
9天前 #3楼
游客组