BILL36
隐世仙人♂

[2024] [韩国] [爱情] [WEB-1080P] 背着善在跑吧[第12集][中文字幕].Lovely.Runner.S01.2024.1080p.IQ.WEB-DL.H264.AAC-BlackTV 0.96G

-->

完整标题:背着善在跑吧[第12集][中文字幕].Lovely.Runner.S01.2024.1080p.IQ.WEB-DL.H264.AAC-BlackTV 0.96GB



◎标  题 背着善在跑吧
◎译  名 背着善宰跑 / Loverly Runner
◎片  名 선재 업고 튀어
◎年  代 2024
◎产  地 韩国
◎类  别 爱情 / 奇幻
◎语  言 韩语
◎IMDb链接 https://www.imdb.com/title//
◎豆瓣链接 https://movie.douban.com/subject/36486154/
◎导  演 尹钟浩 Yoon Jong-Ho
      金泰烨 Tae-yeob Kim
◎编  剧 李时恩 Lee Shi Eun
◎演  员 边佑锡 Byeon Woo-seok
      金惠奫 Hye-yoon Kim
      宋建熙 Geon-hee Song
      李承協 Seung Hyub Lee

◎简  介
    讲述为了拯救悲剧结束人生的顶级明星,他的热血粉丝逆转时间回到2008年的故事。灿烂时期,重新相遇的两位年轻人克服命运的奇幻爱情喜剧。

部分资源为软字幕,移动端推荐播放器:MxPlayer,nPlayer,infuse ,其他播放器请自行尝试。

部分资源为软字幕,电脑端推荐播放器:PotPlayer,完美解码,KMPLAYER,其他播放器请自行尝试。

下载端推荐纯BT下载软件:qBittorrent,Bitcomet,uTorrent ,其他下载软件请自行尝试。不支持吸血迅雷。

##### MediaInfo ######
General
Unique ID : 261844695450178105891519516524329568106 (0xC4FD7437AEAF4DE2D758FA7C2A48076A)
Complete name : Lovely.Runner.S01E12.2024.1080p.IQ.WEB-DL.H264.AAC-BlackTV.mkv
Duration : 1 h 6 min
Overall bit rate : 2 078 kb/s

Video
ID : 1
Format : AVC
Format/Info : Advanced Video Codec
Format profile : High@L4
Format settings : CABAC / 3 Ref Frames
Format settings, CABAC : Yes
Format settings, Reference frames : 3 frames
Codec ID : V_MPEG4/ISO/AVC
Duration : 1 h 6 min
Bit rate : 1 886 kb/s
Width : 1 920 pixels
Height : 1 080 pixels
Display aspect ratio : 16:9
Frame rate mode : Constant
Frame rate : 29.970 (30000/1001) FPS
Color space : YUV
Chroma subsampling : 4:2:0
Bit depth : 8 bits
Scan type : Progressive
Bits/(Pixel*Frame) : 0.030
Stream size : 891 MiB (91%)
Language : Korean
Default : Yes
Forced : No
Color range : Limited
Color primaries : BT.709
Transfer characteristics : BT.709
Matrix coefficients : BT.709

Audio
ID : 2
Format : AAC LC
Format/Info : Advanced Audio Codec Low Complexity
Codec ID : A_AAC-2
Duration : 1 h 6 min
Bit rate : 192 kb/s
Channel(s) : 2 channels
Channel layout : L R
Sampling rate : 44.1 kHz
Frame rate : 43.066 FPS (1024 SPF)
Compression mode : Lossy
Stream size : 89.7 MiB (9%)
Title : Korean [AAC2.0]
Language : Korean
Default : No
Forced : No

Text #1
ID : 3
Format : UTF-8
Codec ID : S_TEXT/UTF8
Codec ID/Info : UTF-8 Plain Text
Duration : 1 h 5 min
Bit rate : 41 b/s
Frame rate : 0.229 FPS
Count of elements : 906
Stream size : 20.1 KiB (0%)
Title : Simplified Chinese
Language : Chinese
Default : Yes
Forced : No

Text #2
ID : 4
Format : UTF-8
Codec ID : S_TEXT/UTF8
Codec ID/Info : UTF-8 Plain Text
Duration : 1 h 5 min
Bit rate : 41 b/s
Frame rate : 0.229 FPS
Count of elements : 906
Stream size : 20.1 KiB (0%)
Title : Traditional Chinese
Language : Chinese
Default : No
Forced : No




1 个附件 售价 大小 下载 时间

Lovely.Runner.S01.2024.1080p.IQ.WEB-DL.H264.AAC-BlackTV[1LOU.ME].torrent 0 金币 4.89K 847 次 8天前

#1楼
发帖时间:2024-05-16 00:55:34   |   回复数:0
游客组