BILL36
隐世仙人♂

[2024] [大陆] [剧情] [WEB-1080P] 披荆斩棘的大小姐[第23集][国语音轨/简繁英字幕].2024.1080p.WeTV.WEB-DL.H264.AAC-BlackTV 0.31GB

-->

完整标题:披荆斩棘的大小姐[第23集][国语音轨/简繁英字幕].2024.1080p.WeTV.WEB-DL.H264.AAC-BlackTV 0.31GB



◎标  题 披荆斩棘的大小姐
◎年  代 2024
◎产  地 中国大陆
◎类  别 剧情 / 爱情 / 古装
◎语  言 汉语普通话
◎IMDb链接 https://www.imdb.com/title//
◎豆瓣链接 https://movie.douban.com/subject/36317422/
◎导  演 李宏宇 Wang Yu Lee
◎编  剧 刘晶 Jing Liu
      刘紫坤 Zikun Liu
      风葙 Xiang Feng
      代钰 Yu Dai
◎演  员 徐璐 Lu Xu
      魏哲鸣 Zheming Wei
      刘些宁 Sally
      吴崇轩 Chongxuan Wu
      程金铭 Jinming Cheng
      杨舒亦 YiYi
      邓靖弘 Jinghong Deng

◎简  介
    温婉恬静的罗家大小姐罗爱莲,因突如其来的灾难,一夜间失去了一切,从人间富贵花被打入泥潭。经历重重困境,最终经历过九死一生的罗爱莲凤凰涅槃成为能文能武的镖局大小姐沈丹青(徐璐 饰),从此浴火重生,踏上手撕仇人的荆棘之路,开启了她的别样人生。沈丹青在复仇的过程中意外闯入了寻找丢失宝藏的徐将军(魏哲鸣 饰)视野,引起他的怀疑,这使沈丹青的这条复仇之路更加跌宕起伏、与众不同,两人在一次次惊心动魄的斗智斗勇中,相互成全,惺惺相惜,发生了一系列扣人心弦的故事。

部分资源为软字幕,移动端推荐播放器:MxPlayer,nPlayer,infuse ,其他播放器请自行尝试。

部分资源为软字幕,电脑端推荐播放器:PotPlayer,完美解码,KMPLAYER,其他播放器请自行尝试。

下载端推荐纯BT下载软件:qBittorrent,Bitcomet,uTorrent ,其他下载软件请自行尝试。不支持吸血迅雷。

##### MediaInfo ######
General
Unique ID : 225045872146831821688632636187916760325 (0xA94E4226B022B20ECB6F6F7D97B5F505)
Complete name : Lady.Revenger.Returns.From.the.Fire.S01E23.2024.1080p.WeTV.WEB-DL.H264.AAC-BlackTV.mkv
Duration : 43 min 55 s
Overall bit rate : 1 013 kb/s

Video
ID : 1
Format : AVC
Format/Info : Advanced Video Codec
Format profile : High@L4
Format settings : CABAC / 4 Ref Frames
Format settings, CABAC : Yes
Format settings, Reference frames : 4 frames
Codec ID : V_MPEG4/ISO/AVC
Duration : 43 min 55 s
Bit rate : 917 kb/s
Width : 1 920 pixels
Height : 816 pixels
Display aspect ratio : 2.35:1
Frame rate mode : Constant
Frame rate : 25.000 FPS
Color space : YUV
Chroma subsampling : 4:2:0
Bit depth : 8 bits
Scan type : Progressive
Bits/(Pixel*Frame) : 0.023
Stream size : 288 MiB (91%)
Language : Chinese
Default : Yes
Forced : No
Color range : Limited
Color primaries : BT.709
Matrix coefficients : BT.709

Audio
ID : 2
Format : AAC LC
Format/Info : Advanced Audio Codec Low Complexity
Codec ID : A_AAC-2
Duration : 43 min 55 s
Bit rate : 93.4 kb/s
Channel(s) : 2 channels
Channel layout : L R
Sampling rate : 48.0 kHz
Frame rate : 46.875 FPS (1024 SPF)
Compression mode : Lossy
Delay relative to video : -42 ms
Stream size : 29.3 MiB (9%)
Title : Mandarin [AAC2.0]
Language : Chinese
Default : No
Forced : No

Text #1
ID : 3
Format : UTF-8
Codec ID : S_TEXT/UTF8
Codec ID/Info : UTF-8 Plain Text
Duration : 38 min 58 s
Bit rate : 47 b/s
Frame rate : 0.299 FPS
Count of elements : 699
Stream size : 13.4 KiB (0%)
Title : Chinese (Simplified)
Language : Chinese
Default : Yes
Forced : No

Text #2
ID : 4
Format : UTF-8
Codec ID : S_TEXT/UTF8
Codec ID/Info : UTF-8 Plain Text
Duration : 38 min 58 s
Bit rate : 47 b/s
Frame rate : 0.299 FPS
Count of elements : 699
Stream size : 13.4 KiB (0%)
Title : Chinese (Traditional)
Language : Chinese
Default : No
Forced : No

Text #3
ID : 5
Format : UTF-8
Codec ID : S_TEXT/UTF8
Codec ID/Info : UTF-8 Plain Text
Duration : 42 min 33 s
Bit rate : 60 b/s
Frame rate : 0.275 FPS
Count of elements : 703
Stream size : 18.9 KiB (0%)
Title : English
Language : English
Default : No
Forced : No




1 个附件 售价 大小 下载 时间

2024.1080p.WeTV.WEB-DL.H264.AAC-BlackTV[1LOU.ME].torrent 0 金币 3.30K 168 次 8天前

#1楼
发帖时间:2024-05-16 00:40:52   |   回复数:0
游客组