BILL36
隐世仙人♂

[2024] [大陆] [剧情] [WEB-4K] 少年巴比伦[全26集][国语配音/中文字幕].Young.Babylon.S01.2024.2160p.WEB-DL.H265.DDP-BlackTV 24.9

-->

完整标题:少年巴比伦[全26集][国语配音/中文字幕].Young.Babylon.S01.2024.2160p.WEB-DL.H265.DDP-BlackTV 24.96GB



◎标  题 少年巴比伦
◎译  名 少年巴比伦剧版 / Young Babylon
◎年  代 2024
◎产  地 中国大陆
◎类  别 剧情 / 爱情
◎语  言 汉语普通话
◎IMDb链接 https://www.imdb.com/title/tt26442657/
◎豆瓣链接 https://movie.douban.com/subject/35483390/
◎导  演 林育贤 Yu-Hsien Lin
◎编  剧 何亮
      朱金晨 Jinchen Zhu
      张柳 Liu Zhang
      母紫馨 Yolanda
      路内 Nei Lu
◎演  员 杨采钰 Caiyu Yang
      侯明昊 Minghao Hou
      向涵之 Hanzhi Xiang
      费启鸣 Qiming Fei
      张腾 Teng Zhang
      陈奕歌 Yige Chen
      隋媛 Yuan Sui
      张淞 Song Zhang
      王蔷 Qiang Wang
      张天舒 Tianshu Zhang

◎简  介
    上世纪90年代初,东南沿海小城——福城,一群在时代列车上追赶青春的少年,他们热烈而莽撞,肆意的野蛮生长。在寻找星辰大海中完成“平凡又不平凡”的蜕变,在青春最香甜灿烂的年代,努力迎向属于他们的光辉岁月,收获了成长与爱情。

部分资源为软字幕,移动端推荐播放器:MxPlayer,nPlayer,infuse ,其他播放器请自行尝试。

部分资源为软字幕,电脑端推荐播放器:PotPlayer,完美解码,KMPLAYER,其他播放器请自行尝试。

下载端推荐纯BT下载软件:qBittorrent,Bitcomet,uTorrent ,其他下载软件请自行尝试。不支持吸血迅雷。

##### MediaInfo ######
General
Unique ID : 283449242353239766695025843682921628493 (0xD53E569E830477414DB658FC9E77434D)
Complete name : Young.Babylon.S01E01.2024.2160p.WEB-DL.H265.DDP-BlackTV.mkv
Duration : 42 min 27 s
Overall bit rate : 3 196 kb/s

Video
ID : 1
Format : HEVC
Format/Info : High Efficiency Video Coding
Format profile : Main@L5@Main
Codec ID : V_MPEGH/ISO/HEVC
Duration : 42 min 27 s
Bit rate : 2 813 kb/s
Width : 3 840 pixels
Height : 1 920 pixels
Display aspect ratio : 2.000
Frame rate mode : Constant
Frame rate : 25.000 FPS
Color space : YUV
Chroma subsampling : 4:2:0
Bit depth : 8 bits
Bits/(Pixel*Frame) : 0.015
Stream size : 854 MiB (88%)
Writing library : Tencent-V265-1.6.9.1-p1k184g16lh64f4ra1.
Language : Chinese
Default : Yes
Forced : No
Color range : Limited
Color primaries : BT.709
Matrix coefficients : BT.709
VENDOR_ID : [0][0][0][0]

Audio #1
ID : 2
Format : E-AC-3
Format/Info : Enhanced AC-3
Commercial name : Dolby Digital Plus
Codec ID : A_EAC3
Duration : 42 min 27 s
Bit rate mode : Constant
Bit rate : 256 kb/s
Channel(s) : 2 channels
Channel layout : L R
Sampling rate : 48.0 kHz
Frame rate : 31.250 FPS (1536 SPF)
Bit depth : 32 bits
Compression mode : Lossy
Delay relative to video : -42 ms
Stream size : 77.7 MiB (8%)
Title : Mandarin [DDP2.0]
Language : Chinese
Service kind : Complete Main
Default : Yes
Forced : No
VENDOR_ID : [0][0][0][0]

Audio #2
ID : 3
Format : AAC LC
Format/Info : Advanced Audio Codec Low Complexity
Codec ID : A_AAC-2
Duration : 42 min 27 s
Bit rate : 125 kb/s
Channel(s) : 2 channels
Channel layout : L R
Sampling rate : 48.0 kHz
Frame rate : 46.875 FPS (1024 SPF)
Compression mode : Lossy
Delay relative to video : -42 ms
Stream size : 38.1 MiB (4%)
Title : Mandarin [AAC2.0]
Language : Chinese
Default : No
Forced : No
VENDOR_ID : [0][0][0][0]




1 个附件 售价 大小 下载 时间

Young.Babylon.S01.2024.2160p.WEB-DL.H265.DDP-BlackTV[1LOU.ME].torrent 0 金币 67.14K 336 次 8天前

#1楼
发帖时间:2024-05-16 00:38:53   |   回复数:0
游客组