BILL36
隐世仙人♂

[2020] [韩国] [喜剧] [WEB-1080P] 僵尸侦探[全24集][中文字幕].Zombie.Detective.S01.1080p.MyVideo.WEB-DL.AAC.2.0.H.264-BlackTV

-->

完整标题:僵尸侦探[全24集][中文字幕].Zombie.Detective.S01.1080p.MyVideo.WEB-DL.AAC.2.0.H.264-BlackTV 24.02GB



◎标  题 僵尸侦探
◎译  名 丧尸侦探 / Zombie Detective
◎片  名 좀비탐정
◎年  代 2020
◎产  地 韩国
◎类  别 喜剧 / 恐怖
◎语  言 韩语
◎IMDb评分 7.4/10 (1021人评价)
◎IMDb链接 https://www.imdb.com/title/tt12937604/
◎豆瓣评分 7.3/10 (4470人评价)
◎豆瓣链接 https://movie.douban.com/subject/35094280/
◎导  演 沈在贤 Jae-hyun Shim
◎演  员 崔振赫 Jin-Hyeok Choi
      朴柱炫 Joo-Hyun Park
      权华焕 Hwa-woon Kwon
      郑采律 Chae-yull Jung
      太恒浩 Tae Hang-ho
      李仲玉 Joon gok Lee
      黄宝罗 Bo-ra Hwang
      安世河 Se-ha Ahn
      林世柱 Se-joo Im
      朴相勉 Sang-Myeon Park
      朴东彬 Dong-bin Park
      李家燮 Ga-seop Lee
      裴侑蓝 Bae Yoo-ram
      成敏俊 Min-jun Sung
      萨姆·汉明顿 Sam Hammington
      金罗莎 Kim Rosa
      宋歌人 Ga-in Song
      权英恩 Kwon Young-Eun
      威廉·汉明顿 William Hammington
      金南怡 Kim Nam-Yee
      韩慧芝 Han Hye-Ji
      吴娜美 Oh Na-mi
      尹基昌 Ki Chang Yun
      河道权 Ha Do Kwon
      朴周勇 Joo-yong Park

◎简  介
    该剧讲述复活4年的僵尸将自己洗白成侦探的身份在人类世界孤军奋斗的生存记故事。

部分资源为软字幕,移动端推荐播放器:MxPlayer,nPlayer,infuse ,其他播放器请自行尝试。

部分资源为软字幕,电脑端推荐播放器:PotPlayer,完美解码,KMPLAYER,其他播放器请自行尝试。

下载端推荐纯BT下载软件:qBittorrent,Bitcomet,uTorrent ,其他下载软件请自行尝试。不支持吸血迅雷。

##### MediaInfo ######
General
Unique ID : 252952565197483861084992633356435013522 (0xBE4CE458F4625EBC02FB7A5C82733F92)
Complete name : Zombie.Detective.S01E01.1080p.MyVideo.WEB-DL.AAC.2.0.H.264-BlackTV.mkv
Duration : 31 min 20 s
Overall bit rate : 4 623 kb/s

Video
ID : 1
Format : AVC
Format/Info : Advanced Video Codec
Format profile : [email protected]
Format settings : 4 Ref Frames
Format settings, CABAC : No
Format settings, Reference frames : 4 frames
Format settings, GOP : M=1, N=25
Codec ID : V_MPEG4/ISO/AVC
Duration : 31 min 20 s
Bit rate mode : Constant
Bit rate : 4 500 kb/s
Width : 1 920 pixels
Height : 1 080 pixels
Display aspect ratio : 16:9
Frame rate mode : Constant
Frame rate : 29.970 (30000/1001) FPS
Standard : NTSC
Color space : YUV
Chroma subsampling : 4:2:0
Bit depth : 8 bits
Scan type : Progressive
Bits/(Pixel*Frame) : 0.072
Stream size : 1 013 MiB (98%)
Language : English
Default : Yes
Forced : No
Color range : Limited

Audio
ID : 2
Format : AAC LC
Format/Info : Advanced Audio Codec Low Complexity
Codec ID : A_AAC-2
Duration : 31 min 20 s
Bit rate : 93.6 kb/s
Channel(s) : 2 channels
Channel layout : L R
Sampling rate : 44.1 kHz
Frame rate : 43.066 FPS (1024 SPF)
Compression mode : Lossy
Stream size : 21.0 MiB (2%)
Language : English
Default : Yes
Forced : No


点击图片可查看大图

软字幕无法在截图上展现,HDR版本/杜比视界版本截图会出现颜色异常,请使用支持的设备播放!



1 个附件 售价 大小 下载 时间

Zombie.Detective.S01.1080p.MyVideo.WEB-DL.AAC.2.0.H.264-BlackTV[1LOU.ME].torrent 0 金币 64.76K 487 次 1月前

#1楼
发帖时间:2024-04-21 22:26:47   |   回复数:1
gary_ruan
小有名气
僵尸他们会不会申遗?
1月前 #2楼
游客组