BILL36
隐世仙人♂

[2010] [韩国] [爱情] [WEB-1080P] 检察官公主[全16集][中文字幕].Prosecutor.Princess.S01.1080p.MyVideo.WEB-DL.AAC.2.0.H.264-Bla

-->

完整标题:检察官公主[全16集][中文字幕].Prosecutor.Princess.S01.1080p.MyVideo.WEB-DL.AAC.2.0.H.264-BlackTV 34.91GB



◎标  题 检察官公主
◎片  名 검사 프린세스
◎年  代 2010
◎产  地 韩国
◎类  别 爱情
◎语  言 韩语
◎IMDb评分 7/10 (323人评价)
◎IMDb链接 https://www.imdb.com/title/tt1819921/
◎豆瓣评分 7.7/10 (21241人评价)
◎豆瓣链接 https://movie.douban.com/subject/4303685/
◎导  演 陈赫 Hyuk Jin
◎编  剧 苏贤京 Hyeon-kyeong So
◎演  员 金素妍 So-yeon Kim
      朴施厚 Park Si-hoo
      韩正洙 Jeong-soo Han
      朴贞雅 Jung-ah Park
      李钟硕 Jong-suk Lee
      崔松贤 Song-hyun Choi
      金东均 Dong-gyoon Kim
      张勇福 Jang Yong-bok
      金桐俊 Kim Dong Joon
      朴银肢 Park Eun Ji
      朴成均 Park Seong-gyoon
      朴敏荷 Park Min Ha
      金相镐 Sang-ho Kim
      崔政宇 Jung-woo Choi
      李一花 Il-hwa Lee
      杨姬琼 Yang Hee Kyung
      金泰宪 Kim Tae Heon

◎简  介
    一说到检察官,会想到什么?正气凌然、严肃少语。但这些词在马惠丽(金素妍 饰)身上则全不适用。记忆力超强的马惠丽中意的是光鲜亮丽的服饰和鞋子,向往的是时尚界。但出身名门的她一早就被规划好了人生,在父母的安排下,走上了检察官之路。但惠丽则对于什么是正义,为什么要做检察官则一无所知。对检察官毫无热情的惠丽,却阴差阳错地解决了一起又一起的案件。这幕后的推手则是律师出身的徐宇人(朴施厚 饰)。徐宇人可谓一天二十四小时都围绕着惠丽,对于惠丽烦心的事都及时出手帮忙。这背后的原因则牵扯到二十年前宇人父亲和惠丽父亲的事。   父辈的恩怨让宇人在冰与火中徘徊。宇人逐渐偏离了最初接近惠丽的目的,而不知情的惠丽则毫无意外的投入了这场恋爱,殊不知真相正在慢慢逼近她……

部分资源为软字幕,移动端推荐播放器:MxPlayer,nPlayer,infuse ,其他播放器请自行尝试。

部分资源为软字幕,电脑端推荐播放器:PotPlayer,完美解码,KMPLAYER,其他播放器请自行尝试。

下载端推荐纯BT下载软件:qBittorrent,Bitcomet,uTorrent ,其他下载软件请自行尝试。不支持吸血迅雷。

##### MediaInfo ######
General
Unique ID : 302083457494987703060129187990071202696 (0xE343285BB5686D6142946A422140D388)
Complete name : Prosecutor.Princess.S01E01.1080p.MyVideo.WEB-DL.AAC.2.0.H.264-BlackTV.mkv
Duration : 1 h 7 min
Overall bit rate : 4 565 kb/s

Video
ID : 1
Format : AVC
Format/Info : Advanced Video Codec
Format profile : [email protected]
Format settings : 4 Ref Frames
Format settings, CABAC : No
Format settings, Reference frames : 4 frames
Format settings, GOP : M=1, N=25
Codec ID : V_MPEG4/ISO/AVC
Duration : 1 h 7 min
Bit rate mode : Constant
Bit rate : 4 500 kb/s
Width : 1 920 pixels
Height : 1 080 pixels
Display aspect ratio : 16:9
Frame rate mode : Constant
Frame rate : 29.970 (30000/1001) FPS
Standard : NTSC
Color space : YUV
Chroma subsampling : 4:2:0
Bit depth : 8 bits
Scan type : Progressive
Bits/(Pixel*Frame) : 0.072
Stream size : 2.12 GiB (99%)
Language : English
Default : Yes
Forced : No
Color range : Limited

Audio
ID : 2
Format : AAC LC
Format/Info : Advanced Audio Codec Low Complexity
Codec ID : A_AAC-2
Duration : 1 h 7 min
Bit rate : 53.7 kb/s
Channel(s) : 2 channels
Channel layout : L R
Sampling rate : 44.1 kHz
Frame rate : 43.066 FPS (1024 SPF)
Compression mode : Lossy
Stream size : 25.9 MiB (1%)
Language : English
Default : Yes
Forced : No


点击图片可查看大图

软字幕无法在截图上展现,HDR版本/杜比视界版本截图会出现颜色异常,请使用支持的设备播放!



1 个附件 售价 大小 下载 时间

Prosecutor.Princess.S01.1080p.MyVideo.WEB-DL.AAC.2.0.H.264-BlackTV[1LOU.ME].torrent 0 金币 91.24K 501 次 28天前

#1楼
发帖时间:2024-04-21 22:25:15   |   回复数:0
游客组