BILL36
隐世仙人♂

[2023] [韩国] [剧情] [WEB-1080P] 纯情拳击手[全12集][中文字幕].My.Lovely.Boxer.S01.1080p.MyVideo.WEB-DL.AAC.2.0.H.264-BlackTV

-->

完整标题:纯情拳击手[全12集][中文字幕].My.Lovely.Boxer.S01.1080p.MyVideo.WEB-DL.AAC.2.0.H.264-BlackTV 24.97GB



◎标  题 纯情拳击手
◎译  名 My Lovely Boxer
◎片  名 순정복서
◎年  代 2023
◎产  地 韩国
◎类  别 剧情
◎语  言 韩语
◎IMDb链接 https://www.imdb.com/title//
◎豆瓣评分 5.5/10 (211人评价)
◎豆瓣链接 https://movie.douban.com/subject/36099464/
◎导  演 崔尚烈 Sang-yeol Choi
      洪恩美 Eunmi Hong
◎演  员 李相烨 Sang-Yeob Lee
      金素慧 Kim So Hye
      朴智焕 Park Ji-hwan
      金炯默 Hyeong-mook Kim
      金秦禹 Jin-Woo Kim
      荷承里 Seung-Ri Ha
      蔡元彬 Won-bin Chae
      宋艺彬 Ye-bin Song
      金晟坤 Sung-gon Kim

◎简  介
    讲述世界排名第一的拳击选手李权淑在令全韩国为之疯狂后突然引退并销声匿迹;某一天体育经理人的出现并提出了一个让她无法拒绝的复出提议,而随之发生的故事。

部分资源为软字幕,移动端推荐播放器:MxPlayer,nPlayer,infuse ,其他播放器请自行尝试。

部分资源为软字幕,电脑端推荐播放器:PotPlayer,完美解码,KMPLAYER,其他播放器请自行尝试。

下载端推荐纯BT下载软件:qBittorrent,Bitcomet,uTorrent ,其他下载软件请自行尝试。不支持吸血迅雷。

##### MediaInfo ######
General
Unique ID : 216631093173958752559587766468649148286 (0xA2F9A18429E336922AEF25AE3613DF7E)
Complete name : My.Lovely.Boxer.S01E01.1080p.MyVideo.WEB-DL.AAC.2.0.H.264-BlackTV.mkv
Duration : 1 h 8 min
Overall bit rate : 4 555 kb/s

Video
ID : 1
Format : AVC
Format/Info : Advanced Video Codec
Format profile : Main@L4
Format settings : CABAC / 1 Ref Frames
Format settings, CABAC : Yes
Format settings, Reference frames : 1 frame
Format settings, GOP : M=1, N=60
Codec ID : V_MPEG4/ISO/AVC
Duration : 1 h 8 min
Bit rate mode : Constant
Bit rate : 4 500 kb/s
Width : 1 920 pixels
Height : 1 080 pixels
Display aspect ratio : 16:9
Frame rate mode : Constant
Frame rate : 29.970 (30000/1001) FPS
Color space : YUV
Chroma subsampling : 4:2:0
Bit depth : 8 bits
Scan type : Progressive
Bits/(Pixel*Frame) : 0.072
Stream size : 2.16 GiB (99%)
Language : English
Default : Yes
Forced : No

Audio
ID : 2
Format : AAC LC
Format/Info : Advanced Audio Codec Low Complexity
Codec ID : A_AAC-2
Duration : 1 h 8 min
Bit rate : 56.0 kb/s
Channel(s) : 2 channels
Channel layout : L R
Sampling rate : 44.1 kHz
Frame rate : 43.066 FPS (1024 SPF)
Compression mode : Lossy
Stream size : 27.6 MiB (1%)
Language : English
Default : Yes
Forced : No

Text
ID : 3
Format : UTF-8
Codec ID : S_TEXT/UTF8
Codec ID/Info : UTF-8 Plain Text
Duration : 1 h 8 min
Bit rate : 53 b/s
Frame rate : 0.251 FPS
Count of elements : 1034
Stream size : 27.1 KiB (0%)
Title : Traditional
Language : Chinese
Default : No
Forced : No


点击图片可查看大图

软字幕无法在截图上展现,HDR版本/杜比视界版本截图会出现颜色异常,请使用支持的设备播放!



1 个附件 售价 大小 下载 时间

My.Lovely.Boxer.S01.1080p.MyVideo.WEB-DL.AAC.2.0.H.264-BlackTV[1LOU.ME].torrent 0 金币 65.91K 287 次 28天前

#1楼
发帖时间:2024-04-21 22:23:04   |   回复数:0
游客组