BILL36
隐世仙人♂

[2021] [韩国] [喜剧] [WEB-1080P] 花开时想月[全16集][中文字幕].Moonshine.S01.1080p.MyVideo.WEB-DL.AAC.2.0.H.264-BlackTV 33.52

-->

完整标题:花开时想月[全16集][中文字幕].Moonshine.S01.1080p.MyVideo.WEB-DL.AAC.2.0.H.264-BlackTV 33.52GB



◎标  题 花开时想月
◎译  名 When Flowers Bloom / I Think of the Moon
◎片  名 꽃 피면 달 생각하고
◎年  代 2021
◎产  地 韩国
◎类  别 喜剧 / 爱情 / 古装
◎语  言 韩语
◎IMDb评分 7.1/10 (332人评价)
◎IMDb链接 https://www.imdb.com/title/tt14609502/
◎豆瓣评分 5.8/10 (769人评价)
◎豆瓣链接 https://movie.douban.com/subject/35352149/
◎导  演 黄仁赫 In-hyuk Hwang
◎演  员 俞承豪 Seung-Ho Yoo
      李惠利 Hyeri Lee
      边佑锡 Byeon Woo-seok
      姜美娜 Mi-na Kang
      崔元英 Won-young Choi
      张光 Gwang Jang
      金基邦 Ki-bang Kim
      林元熙 Won-hie Lim
      李时勋 Si-hoon Lee
      林哲亨 Lim Chul-hyung
      徐艺华 Ye-hwa Seo
      裴侑蓝 Bae Yoo-ram
      郑英珠 Young-ju Jung
      朴承贤 Sung-hyun Park
      郑成日 Jeong Seong-il
      安诗河 Si-ha An
      金民浩 Kim Min Ho
      文柔强 Yookang Moon
      朴雅仁 Park Ah-in
      洪万彪 Wan-pyo Hong
      李基泽 Lee Gi-taek
      金址晏 Kim Ji An
      李彩京 Chae-kyung Lee
      边书允 Seo-yoon Byeon
      李煌义 Lee Hwang-ui
      韩成天 Han Sung-chun
      金在祿 Jae-rok Kim
      申贤宗 Hyeon-jong Sin
      宋德浩 Dukho Song
      李成旭 Seong-wook Lee
      朴恩硕 Eun-Seok Park
      黄宝罗 Bo-ra Hwang
      李蔎娥 Lee Seol Ah
      白遐怡 Baek Hi

◎简  介
    《花开时想月》是韩国KBS2于2021年12月20日起播出的月火连续剧,由《月桂树西装店的绅士们》、《监狱医生》的黄仁赫导演与金柱熙编剧合作打造。此剧讲述朝鲜禁酒令时期,四个“越线”的年轻人的友情和爱情以及成长故事。

部分资源为软字幕,移动端推荐播放器:MxPlayer,nPlayer,infuse ,其他播放器请自行尝试。

部分资源为软字幕,电脑端推荐播放器:PotPlayer,完美解码,KMPLAYER,其他播放器请自行尝试。

下载端推荐纯BT下载软件:qBittorrent,Bitcomet,uTorrent ,其他下载软件请自行尝试。不支持吸血迅雷。

##### MediaInfo ######
General
Unique ID : 316473124501445142233808602632218411161 (0xEE1681B78EABFBDCEB5F64080D970099)
Complete name : Moonshine.S01E01.1080p.MyVideo.WEB-DL.AAC.2.0.H.264-BlackTV.mkv
Duration : 1 h 9 min
Overall bit rate : 4 570 kb/s

Video
ID : 1
Format : AVC
Format/Info : Advanced Video Codec
Format profile : [email protected]
Format settings : 4 Ref Frames
Format settings, CABAC : No
Format settings, Reference frames : 4 frames
Format settings, GOP : M=1, N=25
Codec ID : V_MPEG4/ISO/AVC
Duration : 1 h 9 min
Bit rate mode : Constant
Bit rate : 4 500 kb/s
Width : 1 920 pixels
Height : 1 080 pixels
Display aspect ratio : 16:9
Frame rate mode : Constant
Frame rate : 29.970 (30000/1001) FPS
Standard : NTSC
Color space : YUV
Chroma subsampling : 4:2:0
Bit depth : 8 bits
Scan type : Progressive
Bits/(Pixel*Frame) : 0.072
Stream size : 2.18 GiB (99%)
Language : English
Default : Yes
Forced : No
Color range : Limited

Audio
ID : 2
Format : AAC LC
Format/Info : Advanced Audio Codec Low Complexity
Codec ID : A_AAC-2
Duration : 1 h 9 min
Bit rate : 53.7 kb/s
Channel(s) : 2 channels
Channel layout : L R
Sampling rate : 44.1 kHz
Frame rate : 43.066 FPS (1024 SPF)
Compression mode : Lossy
Stream size : 26.6 MiB (1%)
Language : English
Default : Yes
Forced : No

Text
ID : 3
Format : UTF-8
Codec ID : S_TEXT/UTF8
Codec ID/Info : UTF-8 Plain Text
Duration : 1 h 9 min
Bit rate : 36 b/s
Frame rate : 0.200 FPS
Count of elements : 829
Stream size : 18.6 KiB (0%)
Title : Traditional
Language : Chinese
Default : No
Forced : No


点击图片可查看大图

软字幕无法在截图上展现,HDR版本/杜比视界版本截图会出现颜色异常,请使用支持的设备播放!



1 个附件 售价 大小 下载 时间

Moonshine.S01.1080p.MyVideo.WEB-DL.AAC.2.0.H.264-BlackTV[1LOU.ME].torrent 0 金币 87.60K 231 次 28天前

#1楼
发帖时间:2024-04-21 22:20:41   |   回复数:0
游客组