BILL36
隐世仙人♂

[2024] [日本] [爱情] [WEB-1080P] 第二次恋爱才完美[全6集][中文字幕].1080p.MyVideo.WEB-DL.AAC.2.0.H.264-BlackTV 4.59GB

-->

完整标题:第二次恋爱才完美[全6集][中文字幕].1080p.MyVideo.WEB-DL.AAC.2.0.H.264-BlackTV 4.59GB



◎标  题 第二次恋爱才完美
◎片  名 恋をするなら二度目が上等
◎年  代 2024
◎产  地 日本
◎类  别 爱情 / 同性
◎语  言 日语
◎IMDb链接 https://www.imdb.com/title//
◎豆瓣链接 https://movie.douban.com/subject/36779832/
◎导  演 安川有果 Yuka Yasukawa
◎编  剧 安川有果 Yuka Yasukawa
◎演  员 长谷川慎 Makoto Hasegawa
      古屋吕敏 Robin Furuya

◎简  介
    本剧改编自同名漫画,讲述了编辑宫田晃启为了委托撰写经济专栏,拜访了当红的大学副教授岩永崇,但他竟然是在高中时代分手的初恋对象!宫田现在已经有了一个可以考虑结婚的女朋友,但岩永总是对他说些甜言蜜语,工作和生活都被岩永玩弄于股掌之间!?理想、现实、自尊… 无法像过去那样坦率的“超30男子”再次遇到了命中注定的人。充满迂回,令人着急的“第二次”恋爱的去向是…!

部分资源为软字幕,移动端推荐播放器:MxPlayer,nPlayer,infuse ,其他播放器请自行尝试。

部分资源为软字幕,电脑端推荐播放器:PotPlayer,完美解码,KMPLAYER,其他播放器请自行尝试。

下载端推荐纯BT下载软件:qBittorrent,Bitcomet,uTorrent ,其他下载软件请自行尝试。不支持吸血迅雷。

##### MediaInfo ######
General
Unique ID : 22028575826584713097278374721648315310 (0x10928CA446D12932098076BAAECFCBAE)
Complete name : Love.Is.Better.the.Second.Time.Around.S01E01.1080p.MyVideo.WEB-DL.AAC.2.0.H.264-BlackTV.mkv
Duration : 24 min 8 s
Overall bit rate : 4 546 kb/s

Video
ID : 1
Format : AVC
Format/Info : Advanced Video Codec
Format profile : Main@L4
Format settings : CABAC / 1 Ref Frames
Format settings, CABAC : Yes
Format settings, Reference frames : 1 frame
Format settings, GOP : M=1, N=60
Codec ID : V_MPEG4/ISO/AVC
Duration : 24 min 8 s
Bit rate mode : Constant
Bit rate : 4 500 kb/s
Width : 1 920 pixels
Height : 1 080 pixels
Display aspect ratio : 16:9
Frame rate mode : Constant
Frame rate : 29.970 (30000/1001) FPS
Color space : YUV
Chroma subsampling : 4:2:0
Bit depth : 8 bits
Scan type : Progressive
Bits/(Pixel*Frame) : 0.072
Stream size : 773 MiB (99%)
Language : English
Default : Yes
Forced : No

Audio
ID : 2
Format : AAC LC
Format/Info : Advanced Audio Codec Low Complexity
Codec ID : A_AAC-2
Duration : 24 min 8 s
Bit rate : 56.0 kb/s
Channel(s) : 2 channels
Channel layout : L R
Sampling rate : 44.1 kHz
Frame rate : 43.066 FPS (1024 SPF)
Compression mode : Lossy
Stream size : 9.67 MiB (1%)
Language : English
Default : Yes
Forced : No


点击图片可查看大图

软字幕无法在截图上展现,HDR版本/杜比视界版本截图会出现颜色异常,请使用支持的设备播放!



1 个附件 售价 大小 下载 时间

1080p.MyVideo.WEB-DL.AAC.2.0.H.264-BlackTV[1LOU.ME].torrent 0 金币 14.49K 343 次 28天前

#1楼
发帖时间:2024-04-21 22:19:20   |   回复数:0
游客组