BILL36
隐世仙人♂

[2024] [西班牙] [剧情] [WEB-4K] 铁腕毒权[杜比视界版本][全8集][简繁英字幕].Iron.Reign.S01.2024.2160p.NF.WEB-DL.DDP5.1.Atmos.DV.H.2

-->

完整标题:铁腕毒权[杜比视界版本][全8集][简繁英字幕].Iron.Reign.S01.2024.2160p.NF.WEB-DL.DDP5.1.Atmos.DV.H.265-LelveTV 72.72GB



◎标  题 铁腕毒权
◎译  名 Iron Reign
◎片  名 Mano de hierro
◎年  代 2024
◎产  地 西班牙
◎类  别 剧情 / 悬疑 / 惊悚
◎语  言 西班牙语
◎IMDb链接 https://www.imdb.com/title/tt23806252/
◎豆瓣链接 https://movie.douban.com/subject/36533921/
◎导  演 路易斯·奎莱兹 Lluís Quílez
◎编  剧 路易斯·奎莱兹 Lluís Quílez
      Arturo Ruiz Arturo Ruiz
      亚瑟·古里恰切瓦里亚 Asier Guerricachevarría
◎演  员 海因米·洛伦特 Jaime Lorente
      奇诺·达林 Chino Darín
      塞尔希·洛佩斯 Sergi López
      爱德华·费尔南德斯 Eduard Fernández
      纳塔利娅·德·莫利纳 Natalia de Molina
      奥瑞欧·普拉 Oriol Pla
      恩里克·奥克尔 Enric Auquer
      劳尔·希门尼斯 Raúl Jiménez
      玛丽娜·马修斯 Melina Matthews
      奥斯卡·福龙达 Oscar Foronda
      科西莫·福斯科 Cosimo Fusco
      Guillermo Ribón Alba Guillermo Ribón Alba
      吉尼斯·拉马 GENíS LAMA

◎简  介
    华金·曼查多坐镇巴塞罗那海港,用铁腕手段统治着他的毒品帝国——直到一批新货搅乱了他的生意和家族。

部分资源为软字幕,移动端推荐播放器:MxPlayer,nPlayer,infuse ,其他播放器请自行尝试。

部分资源为软字幕,电脑端推荐播放器:PotPlayer,完美解码,KMPLAYER,其他播放器请自行尝试。

下载端推荐纯BT下载软件:qBittorrent,Bitcomet,uTorrent ,其他下载软件请自行尝试。不支持吸血迅雷。

##### MediaInfo ######
General
Unique ID : 262980615693652669464248638234244852123 (0xC5D83968D3A7FA633363875C1F1EA99B)
Complete name : Iron.Reign.S01E01.2024.2160p.NF.WEB-DL.DDP5.1.Atmos.DV.H.265-LelveTV.mkv
Duration : 47 min 56 s
Overall bit rate : 20.7 Mb/s

Video
ID : 1
Format : HEVC
Format/Info : High Efficiency Video Coding
Format profile : Main 10@L5@Main
HDR format : Dolby Vision, Version 1.0, dvhe.05.06, BL+RPU
Codec ID : V_MPEGH/ISO/HEVC
Duration : 47 min 56 s
Bit rate : 19.3 Mb/s
Width : 3 840 pixels
Height : 2 160 pixels
Display aspect ratio : 16:9
Frame rate mode : Constant
Frame rate : 24.000 FPS
Color space : YUV
Chroma subsampling : 4:2:0
Bit depth : 10 bits
Bits/(Pixel*Frame) : 0.097
Stream size : 6.46 GiB (93%)
Default : Yes
Forced : No
Color range : Full

Audio #1
ID : 2
Format : E-AC-3 JOC
Format/Info : Enhanced AC-3 with Joint Object Coding
Commercial name : Dolby Digital Plus with Dolby Atmos
Codec ID : A_EAC3
Duration : 47 min 56 s
Bit rate mode : Constant
Bit rate : 768 kb/s
Channel(s) : 6 channels
Channel layout : L R C LFE Ls Rs
Sampling rate : 48.0 kHz
Frame rate : 31.250 FPS (1536 SPF)
Compression mode : Lossy
Stream size : 263 MiB (4%)
Title : Espa?ol (Espa?a) [Dolby Digital Plus with Dolby Atmos 5.1]
Language : Spanish
Service kind : Complete Main
Default : Yes
Forced : No
Complexity index : 16
Number of dynamic objects : 15
Bed channel count : 1 channel
Bed channel configuration : LFE

Audio #2
ID : 3
Format : E-AC-3
Format/Info : Enhanced AC-3
Commercial name : Dolby Digital Plus
Codec ID : A_EAC3
Duration : 47 min 56 s
Bit rate mode : Constant
Bit rate : 640 kb/s
Channel(s) : 6 channels
Channel layout : L R C LFE Ls Rs
Sampling rate : 48.0 kHz
Frame rate : 31.250 FPS (1536 SPF)
Compression mode : Lossy
Stream size : 219 MiB (3%)
Title : English [Dolby Digital Plus with Dolby Atmos 5.1]
Language : English
Service kind : Complete Main
Default : No
Forced : No

Text #1
ID : 4
Format : UTF-8
Codec ID : S_TEXT/UTF8
Codec ID/Info : UTF-8 Plain Text
Duration : 10 min 58 s
Bit rate : 12 b/s
Frame rate : 0.050 FPS
Count of elements : 33
Stream size : 1 002 Bytes (0%)
Title : Espa?ol (Espa?a) [Forced]
Language : Spanish
Default : No
Forced : Yes

Text #2
ID : 5
Format : UTF-8
Codec ID : S_TEXT/UTF8
Codec ID/Info : UTF-8 Plain Text
Duration : 41 min 46 s
Bit rate : 50 b/s
Frame rate : 0.188 FPS
Count of elements : 470
Stream size : 15.4 KiB (0%)
Title : Espa?ol (Espa?a)
Language : Spanish
Default : No
Forced : No

Text #3
ID : 6
Format : UTF-8
Codec ID : S_TEXT/UTF8
Codec ID/Info : UTF-8 Plain Text
Duration : 45 min 43 s
Bit rate : 62 b/s
Frame rate : 0.237 FPS
Count of elements : 651
Stream size : 21.0 KiB (0%)
Title : Espa?ol (Espa?a) [SDH]
Language : Spanish
Default : No
Forced : No

Text #4
ID : 7
Format : UTF-8
Codec ID : S_TEXT/UTF8
Codec ID/Info : UTF-8 Plain Text
Duration : 45 min 43 s
Bit rate : 39 b/s
Frame rate : 0.186 FPS
Count of elements : 509
Stream size : 13.2 KiB (0%)
Title : 中文(简体)
Language : Chinese
Default : Yes
Forced : No

Text #5
ID : 8
Format : UTF-8
Codec ID : S_TEXT/UTF8
Codec ID/Info : UTF-8 Plain Text
Duration : 45 min 43 s
Bit rate : 39 b/s
Frame rate : 0.177 FPS
Count of elements : 486
Stream size : 13.3 KiB (0%)
Title : 中文 (繁體)
Language : Chinese
Default : No
Forced : No

Text #6
ID : 9
Format : UTF-8
Codec ID : S_TEXT/UTF8
Codec ID/Info : UTF-8 Plain Text
Duration : 45 min 43 s
Bit rate : 79 b/s
Frame rate : 0.174 FPS
Count of elements : 478
Stream size : 26.6 KiB (0%)
Title : ???????
Language : Arabic
Default : No
Forced : No

Text #7
ID : 10
Format : UTF-8
Codec ID : S_TEXT/UTF8
Codec ID/Info : UTF-8 Plain Text
Duration : 45 min 43 s
Bit rate : 42 b/s
Frame rate : 0.177 FPS
Count of elements : 485
Stream size : 14.3 KiB (0%)
Title : ?e?tina
Language : Czech
Default : No
Forced : No

Text #8
ID : 11
Format : UTF-8
Codec ID : S_TEXT/UTF8
Codec ID/Info : UTF-8 Plain Text
Duration : 43 min 25 s
Bit rate : 50 b/s
Frame rate : 0.188 FPS
Count of elements : 489
Stream size : 16.2 KiB (0%)
Title : ?e?tina
Language : Czech
Default : No
Forced : No

Text #9
ID : 12
Format : UTF-8
Codec ID : S_TEXT/UTF8
Codec ID/Info : UTF-8 Plain Text
Duration : 45 min 43 s
Bit rate : 39 b/s
Frame rate : 0.165 FPS
Count of elements : 453
Stream size : 13.2 KiB (0%)
Title : Dansk
Language : Danish
Default : No
Forced : No

Text #10
ID : 13
Format : UTF-8
Codec ID : S_TEXT/UTF8
Codec ID/Info : UTF-8 Plain Text
Duration : 45 min 43 s
Bit rate : 43 b/s
Frame rate : 0.166 FPS
Count of elements : 456
Stream size : 14.7 KiB (0%)
Title : Deutsch
Language : German
Default : No
Forced : No

Text #11
ID : 14
Format : UTF-8
Codec ID : S_TEXT/UTF8
Codec ID/Info : UTF-8 Plain Text
Duration : 43 min 14 s
Bit rate : 54 b/s
Frame rate : 0.184 FPS
Count of elements : 478
Stream size : 17.1 KiB (0%)
Title : Deutsch
Language : German
Default : No
Forced : No

Text #12
ID : 15
Format : UTF-8
Codec ID : S_TEXT/UTF8
Codec ID/Info : UTF-8 Plain Text
Duration : 45 min 41 s
Bit rate : 66 b/s
Frame rate : 0.237 FPS
Count of elements : 651
Stream size : 22.1 KiB (0%)
Title : Deutsch [SDH]
Language : German
Default : No
Forced : No

Text #13
ID : 16
Format : UTF-8
Codec ID : S_TEXT/UTF8
Codec ID/Info : UTF-8 Plain Text
Duration : 45 min 43 s
Bit rate : 77 b/s
Frame rate : 0.178 FPS
Count of elements : 487
Stream size : 26.0 KiB (0%)
Title : Ελληνικ?
Language : Greek
Default : No
Forced : No

Text #14
ID : 17
Format : UTF-8
Codec ID : S_TEXT/UTF8
Codec ID/Info : UTF-8 Plain Text
Duration : 41 min 25 s
Bit rate : 2 b/s
Frame rate : 0.007 FPS
Count of elements : 18
Stream size : 688 Bytes (0%)
Title : English [Forced]
Language : English
Default : No
Forced : Yes

Text #15
ID : 18
Format : UTF-8
Codec ID : S_TEXT/UTF8
Codec ID/Info : UTF-8 Plain Text
Duration : 45 min 43 s
Bit rate : 40 b/s
Frame rate : 0.164 FPS
Count of elements : 450
Stream size : 13.7 KiB (0%)
Title : English
Language : English
Default : No
Forced : No

Text #16
ID : 19
Format : UTF-8
Codec ID : S_TEXT/UTF8
Codec ID/Info : UTF-8 Plain Text
Duration : 45 min 43 s
Bit rate : 53 b/s
Frame rate : 0.197 FPS
Count of elements : 541
Stream size : 18.0 KiB (0%)
Title : English
Language : English
Default : No
Forced : No

Text #17
ID : 20
Format : UTF-8
Codec ID : S_TEXT/UTF8
Codec ID/Info : UTF-8 Plain Text
Duration : 45 min 53 s
Bit rate : 73 b/s
Frame rate : 0.275 FPS
Count of elements : 757
Stream size : 24.6 KiB (0%)
Title : English [SDH]
Language : English
Default : No
Forced : No

Text #18
ID : 21
Format : UTF-8
Codec ID : S_TEXT/UTF8
Codec ID/Info : UTF-8 Plain Text
Duration : 45 min 43 s
Bit rate : 41 b/s
Frame rate : 0.139 FPS
Count of elements : 381
Stream size : 13.9 KiB (0%)
Title : Suomi
Language : Finnish
Default : No
Forced : No

Text #19
ID : 22
Format : UTF-8
Codec ID : S_TEXT/UTF8
Codec ID/Info : UTF-8 Plain Text
Duration : 45 min 43 s
Bit rate : 43 b/s
Frame rate : 0.168 FPS
Count of elements : 462
Stream size : 14.6 KiB (0%)
Title : Filipino
Language : fil
Default : No
Forced : No

Text #20
ID : 23
Format : UTF-8
Codec ID : S_TEXT/UTF8
Codec ID/Info : UTF-8 Plain Text
Duration : 45 min 43 s
Bit rate : 43 b/s
Frame rate : 0.170 FPS
Count of elements : 466
Stream size : 14.4 KiB (0%)
Title : Fran?ais
Language : French
Default : No
Forced : No

Text #21
ID : 24
Format : UTF-8
Codec ID : S_TEXT/UTF8
Codec ID/Info : UTF-8 Plain Text
Duration : 43 min 14 s
Bit rate : 56 b/s
Frame rate : 0.173 FPS
Count of elements : 448
Stream size : 17.8 KiB (0%)
Title : Fran?ais
Language : French
Default : No
Forced : No

Text #22
ID : 25
Format : UTF-8
Codec ID : S_TEXT/UTF8
Codec ID/Info : UTF-8 Plain Text
Duration : 45 min 42 s
Bit rate : 65 b/s
Frame rate : 0.221 FPS
Count of elements : 607
Stream size : 22.0 KiB (0%)
Title : Fran?ais [SDH]
Language : French
Default : No
Forced : No

Text #23
ID : 26
Format : UTF-8
Codec ID : S_TEXT/UTF8
Codec ID/Info : UTF-8 Plain Text
Duration : 45 min 43 s
Bit rate : 69 b/s
Frame rate : 0.174 FPS
Count of elements : 476
Stream size : 23.4 KiB (0%)
Title : ?????
Language : Hebrew
Default : No
Forced : No

Text #24
ID : 27
Format : UTF-8
Codec ID : S_TEXT/UTF8
Codec ID/Info : UTF-8 Plain Text
Duration : 45 min 43 s
Bit rate : 40 b/s
Frame rate : 0.165 FPS
Count of elements : 453
Stream size : 13.6 KiB (0%)
Title : Hrvatski
Language : Croatian
Default : No
Forced : No

Text #25
ID : 28
Format : UTF-8
Codec ID : S_TEXT/UTF8
Codec ID/Info : UTF-8 Plain Text
Duration : 45 min 43 s
Bit rate : 44 b/s
Frame rate : 0.168 FPS
Count of elements : 461
Stream size : 14.9 KiB (0%)
Title : Magyar
Language : Hungarian
Default : No
Forced : No

Text #26
ID : 29
Format : UTF-8
Codec ID : S_TEXT/UTF8
Codec ID/Info : UTF-8 Plain Text
Duration : 43 min 14 s
Bit rate : 52 b/s
Frame rate : 0.185 FPS
Count of elements : 479
Stream size : 16.8 KiB (0%)
Title : Magyar
Language : Hungarian
Default : No
Forced : No

Text #27
ID : 30
Format : UTF-8
Codec ID : S_TEXT/UTF8
Codec ID/Info : UTF-8 Plain Text
Duration : 45 min 43 s
Bit rate : 40 b/s
Frame rate : 0.176 FPS
Count of elements : 483
Stream size : 13.7 KiB (0%)
Title : Bahasa Indonesia
Language : Indonesian
Default : No
Forced : No

Text #28
ID : 31
Format : UTF-8
Codec ID : S_TEXT/UTF8
Codec ID/Info : UTF-8 Plain Text
Duration : 43 min 13 s
Bit rate : 52 b/s
Frame rate : 0.189 FPS
Count of elements : 490
Stream size : 16.5 KiB (0%)
Title : Bahasa Indonesia
Language : Indonesian
Default : No
Forced : No

Text #29
ID : 32
Format : UTF-8
Codec ID : S_TEXT/UTF8
Codec ID/Info : UTF-8 Plain Text
Duration : 45 min 43 s
Bit rate : 42 b/s
Frame rate : 0.171 FPS
Count of elements : 470
Stream size : 14.1 KiB (0%)
Title : Italiano
Language : Italian
Default : No
Forced : No

Text #30
ID : 33
Format : UTF-8
Codec ID : S_TEXT/UTF8
Codec ID/Info : UTF-8 Plain Text
Duration : 43 min 14 s
Bit rate : 51 b/s
Frame rate : 0.183 FPS
Count of elements : 475
Stream size : 16.2 KiB (0%)
Title : Italiano
Language : Italian
Default : No
Forced : No

Text #31
ID : 34
Format : UTF-8
Codec ID : S_TEXT/UTF8
Codec ID/Info : UTF-8 Plain Text
Duration : 44 min 30 s
Bit rate : 65 b/s
Frame rate : 0.247 FPS
Count of elements : 660
Stream size : 21.3 KiB (0%)
Title : Italiano [SDH]
Language : Italian
Default : No
Forced : No

Text #32
ID : 35
Format : UTF-8
Codec ID : S_TEXT/UTF8
Codec ID/Info : UTF-8 Plain Text
Duration : 45 min 43 s
Bit rate : 34 b/s
Frame rate : 0.183 FPS
Count of elements : 503
Stream size : 11.6 KiB (0%)
Title : 日本語
Language : Japanese
Default : No
Forced : No

Text #33
ID : 36
Format : UTF-8
Codec ID : S_TEXT/UTF8
Codec ID/Info : UTF-8 Plain Text
Duration : 45 min 43 s
Bit rate : 49 b/s
Frame rate : 0.177 FPS
Count of elements : 486
Stream size : 16.7 KiB (0%)
Title : ???
Language : Korean
Default : No
Forced : No

Text #34
ID : 37
Format : UTF-8
Codec ID : S_TEXT/UTF8
Codec ID/Info : UTF-8 Plain Text
Duration : 45 min 43 s
Bit rate : 39 b/s
Frame rate : 0.175 FPS
Count of elements : 479
Stream size : 13.3 KiB (0%)
Title : Bahasa Malaysia
Language : Malay
Default : No
Forced : No

Text #35
ID : 38
Format : UTF-8
Codec ID : S_TEXT/UTF8
Codec ID/Info : UTF-8 Plain Text
Duration : 45 min 43 s
Bit rate : 41 b/s
Frame rate : 0.129 FPS
Count of elements : 355
Stream size : 13.7 KiB (0%)
Title : Norsk Bokm?l
Language : Norwegian Bokmal
Default : No
Forced : No

Text #36
ID : 39
Format : UTF-8
Codec ID : S_TEXT/UTF8
Codec ID/Info : UTF-8 Plain Text
Duration : 45 min 41 s
Bit rate : 41 b/s
Frame rate : 0.146 FPS
Count of elements : 401
Stream size : 13.9 KiB (0%)
Title : Nederlands
Language : Dutch
Default : No
Forced : No

Text #37
ID : 40
Format : UTF-8
Codec ID : S_TEXT/UTF8
Codec ID/Info : UTF-8 Plain Text
Duration : 45 min 43 s
Bit rate : 39 b/s
Frame rate : 0.164 FPS
Count of elements : 449
Stream size : 13.3 KiB (0%)
Title : Polski
Language : Polish
Default : No
Forced : No

Text #38
ID : 41
Format : UTF-8
Codec ID : S_TEXT/UTF8
Codec ID/Info : UTF-8 Plain Text
Duration : 43 min 12 s
Bit rate : 32 b/s
Frame rate : 0.153 FPS
Count of elements : 396
Stream size : 10.3 KiB (0%)
Title : Polski
Language : Polish
Default : No
Forced : No

Text #39
ID : 42
Format : UTF-8
Codec ID : S_TEXT/UTF8
Codec ID/Info : UTF-8 Plain Text
Duration : 45 min 43 s
Bit rate : 42 b/s
Frame rate : 0.164 FPS
Count of elements : 449
Stream size : 14.3 KiB (0%)
Title : Português (Brasil)
Language : Portuguese
Default : No
Forced : No

Text #40
ID : 43
Format : UTF-8
Codec ID : S_TEXT/UTF8
Codec ID/Info : UTF-8 Plain Text
Duration : 43 min 14 s
Bit rate : 54 b/s
Frame rate : 0.203 FPS
Count of elements : 528
Stream size : 17.4 KiB (0%)
Title : Português (Brasil)
Language : Portuguese
Default : No
Forced : No

Text #41
ID : 44
Format : UTF-8
Codec ID : S_TEXT/UTF8
Codec ID/Info : UTF-8 Plain Text
Duration : 45 min 41 s
Bit rate : 63 b/s
Frame rate : 0.229 FPS
Count of elements : 628
Stream size : 21.1 KiB (0%)
Title : Português (Brasil) [SDH]
Language : Portuguese
Default : No
Forced : No

Text #42
ID : 45
Format : UTF-8
Codec ID : S_TEXT/UTF8
Codec ID/Info : UTF-8 Plain Text
Duration : 45 min 43 s
Bit rate : 44 b/s
Frame rate : 0.177 FPS
Count of elements : 485
Stream size : 14.8 KiB (0%)
Title : Português (Portugal)
Language : Portuguese
Default : No
Forced : No

Text #43
ID : 46
Format : UTF-8
Codec ID : S_TEXT/UTF8
Codec ID/Info : UTF-8 Plain Text
Duration : 45 min 43 s
Bit rate : 42 b/s
Frame rate : 0.171 FPS
Count of elements : 468
Stream size : 14.2 KiB (0%)
Title : Roman?
Language : Romanian
Default : No
Forced : No

Text #44
ID : 47
Format : UTF-8
Codec ID : S_TEXT/UTF8
Codec ID/Info : UTF-8 Plain Text
Duration : 45 min 43 s
Bit rate : 67 b/s
Frame rate : 0.176 FPS
Count of elements : 482
Stream size : 22.7 KiB (0%)
Title : Русский
Language : Russian
Default : No
Forced : No

Text #45
ID : 48
Format : UTF-8
Codec ID : S_TEXT/UTF8
Codec ID/Info : UTF-8 Plain Text
Duration : 45 min 43 s
Bit rate : 42 b/s
Frame rate : 0.140 FPS
Count of elements : 383
Stream size : 14.1 KiB (0%)
Title : Svenska
Language : Swedish
Default : No
Forced : No

Text #46
ID : 49
Format : UTF-8
Codec ID : S_TEXT/UTF8
Codec ID/Info : UTF-8 Plain Text
Duration : 45 min 43 s
Bit rate : 103 b/s
Frame rate : 0.176 FPS
Count of elements : 483
Stream size : 34.5 KiB (0%)
Title : ???
Language : Thai
Default : No
Forced : No

Text #47
ID : 50
Format : UTF-8
Codec ID : S_TEXT/UTF8
Codec ID/Info : UTF-8 Plain Text
Duration : 43 min 14 s
Bit rate : 134 b/s
Frame rate : 0.191 FPS
Count of elements : 496
Stream size : 42.5 KiB (0%)
Title : ???
Language : Thai
Default : No
Forced : No

Text #48
ID : 51
Format : UTF-8
Codec ID : S_TEXT/UTF8
Codec ID/Info : UTF-8 Plain Text
Duration : 45 min 43 s
Bit rate : 41 b/s
Frame rate : 0.171 FPS
Count of elements : 470
Stream size : 14.1 KiB (0%)
Title : Türk?e
Language : Turkish
Default : No
Forced : No

Text #49
ID : 52
Format : UTF-8
Codec ID : S_TEXT/UTF8
Codec ID/Info : UTF-8 Plain Text
Duration : 43 min 13 s
Bit rate : 47 b/s
Frame rate : 0.181 FPS
Count of elements : 469
Stream size : 15.1 KiB (0%)
Title : Türk?e
Language : Turkish
Default : No
Forced : No

Text #50
ID : 53
Format : UTF-8
Codec ID : S_TEXT/UTF8
Codec ID/Info : UTF-8 Plain Text
Duration : 45 min 43 s
Bit rate : 65 b/s
Frame rate : 0.177 FPS
Count of elements : 485
Stream size : 21.9 KiB (0%)
Title : Укра?нська
Language : Ukrainian
Default : No
Forced : No

Text #51
ID : 54
Format : UTF-8
Codec ID : S_TEXT/UTF8
Codec ID/Info : UTF-8 Plain Text
Duration : 43 min 13 s
Bit rate : 86 b/s
Frame rate : 0.190 FPS
Count of elements : 492
Stream size : 27.4 KiB (0%)
Title : Укра?нська
Language : Ukrainian
Default : No
Forced : No

Text #52
ID : 55
Format : UTF-8
Codec ID : S_TEXT/UTF8
Codec ID/Info : UTF-8 Plain Text
Duration : 45 min 43 s
Bit rate : 55 b/s
Frame rate : 0.174 FPS
Count of elements : 478
Stream size : 18.5 KiB (0%)
Title : Ti?ng Vi?t
Language : Vietnamese
Default : No
Forced : No

Menu
00:00:00.000 : en:Scene 1
00:44:45.450 : en:Credits


点击图片可查看大图

软字幕无法在截图上展现,HDR版本/杜比视界版本截图会出现颜色异常,请使用支持的设备播放!



2 个附件 售价 大小 下载 时间

Chao.Ji.Yu.Wen.Ke.S03.2024.2160p.WEB-DL.H265.EDR.AAC-LelveTV[1LOU.ME].torrent 0 金币 25.52K 147 次 28天前

Iron.Reign.S01.2024.2160p.NF.WEB-DL.DDP5.1.Atmos.DV.H.265-LelveTV[1LOU.ME].torrent 0 金币 184.96K 196 次 28天前

#1楼
发帖时间:2024-04-21 22:16:07   |   回复数:0
游客组