BILL36
超凡入圣№

[2022] [美国] [剧情] [WEB-1080P] 移植手术 第三季[第12-13集][无字片源].Transplant.S03.1080p.Peacock.WEB-DL.DDP.5.1.H.264-BlackT

-->

完整标题:移植手术 第三季[第12-13集][无字片源].Transplant.S03.1080p.Peacock.WEB-DL.DDP.5.1.H.264-BlackTV 4.90GB



◎标  题 移植手术 第三季
◎片  名 Transplant Season 3
◎年  代 2022
◎产  地 美国
◎类  别 剧情
◎语  言 英语 / 阿拉伯语
◎IMDb评分 7.8/10 (110人评价)
◎IMDb链接 https://www.imdb.com/title/tt18269126/
◎豆瓣链接 https://movie.douban.com/subject/36598440/
◎导  演 斯特凡·普莱斯驰恩斯基 Stefan Pleszczynski
◎演  员 哈姆扎·哈克 Hamza Haq
      劳伦斯·勒波芙 Laurence Leboeuf
      雷克哈·莎尔玛 Rekha Sharma
      阿伊莎·伊萨 Ayisha Issa
      吉姆·沃森 Jim Watson
      戈德·兰德 Gord Rand
      赛琳娜·古兰高斯 Sirena Gulamgaus
      托蕊·海金森 Torri Higginson
      Patrick Labbé Patrick Labbé
      苏吉斯·瓦鲁盖斯 Sugith Varughese
      乔·柯布登 Joe Cobden
      艾伦·大卫 Ellen David
      凯瑟琳·金·索 Katharine King So
      乔·平格 Joe Pingue

◎简  介
    The new chief of the ED Neeta Devi is on scene and gets mildly injured when a worker falls while working on wires, also causing an electrocution and car crash. Bash disagrees with Devi over a patient with DID, as she keeps putting rules over his pragmatic defense of patient interest, and is told unlike Bishop, she won't support him being instated as regular surgeon. Theo returns to the ED after the helicopter crash he was involved in at the end of season 2, but finds it hard to readjust and deal with 'escape luck guilt'. Mags must still adjust to her more senior position in cardiology.

部分资源为软字幕,移动端推荐播放器:MxPlayer,nPlayer,infuse ,其他播放器请自行尝试。

部分资源为软字幕,电脑端推荐播放器:PotPlayer,完美解码,KMPLAYER,其他播放器请自行尝试。

##### MediaInfo ######
General
Unique ID : 169739478658894921120802073277566218802 (0x7FB2A26C95E844F1B28CA7AFEBAAF232)
Complete name : Transplant.S03E12.Tariq.1080p.Peacock.WEB-DL.DDP.5.1.H.264-BlackTV.mkv
Duration : 43 min 38 s
Overall bit rate : 8 009 kb/s

Video
ID : 1
Format : AVC
Format/Info : Advanced Video Codec
Format profile : High@L4
Format settings : CABAC / 3 Ref Frames
Format settings, CABAC : Yes
Format settings, Reference frames : 3 frames
Codec ID : V_MPEG4/ISO/AVC
Duration : 43 min 38 s
Bit rate : 7 814 kb/s
Width : 1 920 pixels
Height : 1 080 pixels
Display aspect ratio : 16:9
Frame rate mode : Constant
Frame rate : 23.976 (24000/1001) FPS
Color space : YUV
Chroma subsampling : 4:2:0
Bit depth : 8 bits
Scan type : Progressive
Bits/(Pixel*Frame) : 0.157
Stream size : 2.38 GiB (98%)
Writing library : x264 core 164 r3095 baee400
Encoding settings : cabac=1 / ref=3 / deblock=1:0:0 / analyse=0x3:0x113 / me=umh / subme=7 / psy=1 / psy_rd=0.00:0.00 / mixed_ref=1 / me_range=16 / chroma_me=1 / trellis=1 / 8x8dct=1 / cqm=0 / deadzone=21,11 / fast_pskip=1 / chroma_qp_offset=0 / threads=34 / lookahead_threads=5 / sliced_threads=0 / nr=0 / decimate=1 / interlaced=0 / bluray_compat=0 / stitchable=1 / constrained_intra=0 / bframes=2 / b_pyramid=0 / b_adapt=1 / b_bias=0 / direct=1 / weightb=1 / open_gop=0 / weightp=2 / keyint=48 / keyint_min=4 / scenecut=0 / intra_refresh=0 / rc_lookahead=48 / rc=2pass / mbtree=1 / bitrate=7814 / ratetol=1.0 / qcomp=0.60 / qpmin=10 / qpmax=51 / qpstep=4 / cplxblur=20.0 / qblur=0.5 / vbv_maxrate=11729 / vbv_bufsize=11729 / nal_hrd=none / filler=0 / ip_ratio=1.41 / aq=1:1.00
Language : English
Default : Yes
Forced : No
Color range : Limited
Color primaries : BT.709
Transfer characteristics : BT.709
Matrix coefficients : BT.709

Audio
ID : 2
Format : E-AC-3
Format/Info : Enhanced AC-3
Commercial name : Dolby Digital Plus
Codec ID : A_EAC3
Duration : 43 min 38 s
Bit rate mode : Constant
Bit rate : 192 kb/s
Channel(s) : 6 channels
Channel layout : L R C LFE Ls Rs
Sampling rate : 48.0 kHz
Frame rate : 31.250 FPS (1536 SPF)
Compression mode : Lossy
Stream size : 59.9 MiB (2%)
Language : English
Service kind : Complete Main
Default : Yes
Forced : No

Text
ID : 3
Format : UTF-8
Codec ID : S_TEXT/UTF8
Codec ID/Info : UTF-8 Plain Text
Duration : 43 min 28 s
Bit rate : 89 b/s
Frame rate : 0.297 FPS
Count of elements : 774
Stream size : 28.6 KiB (0%)
Title : SDH
Language : English
Default : No
Forced : No


点击图片可查看大图

软字幕无法在截图上展现,HDR版本/杜比视界版本截图会出现颜色异常,请使用支持的设备播放!



1 个附件 售价 大小 下载 时间

Transplant.S03.1080p.Peacock.WEB-DL.DDP.5.1.H.264-BlackTV[1LOU.ME].torrent 0 金币 15.09K 91 次 14天前

#1楼
发帖时间:2024-02-13 10:22:27   |   回复数:0
游客组