BILL36
超凡入圣№

[2024] [英国] [剧情] [WEB-1080P] 天堂岛疑云 第十三季[第02集][无字片源].Death.in.Paradise.S13.1080p.iP.WEB-DL.AAC.2.0.HFR.H.264-B

-->

完整标题:天堂岛疑云 第十三季[第02集][无字片源].Death.in.Paradise.S13.1080p.iP.WEB-DL.AAC.2.0.HFR.H.264-BlackTV 1.98GB



◎标  题 天堂岛疑云 第十三季
◎片  名 Death in Paradise Season 13
◎年  代 2024
◎产  地 英国
◎类  别 剧情 / 悬疑 / 犯罪
◎语  言 英语
◎IMDb评分 7.1/10 (21人评价)
◎IMDb链接 https://www.imdb.com/title/tt26908984/
◎豆瓣链接 https://movie.douban.com/subject/36284589/

◎简  介
    BBC一口气续订《天堂岛疑云》第13、14季,以及两集圣诞节特别篇。

部分资源为软字幕,移动端推荐播放器:MxPlayer,nPlayer,infuse ,其他播放器请自行尝试。

部分资源为软字幕,电脑端推荐播放器:PotPlayer,完美解码,KMPLAYER,其他播放器请自行尝试。

##### MediaInfo ######
General
Unique ID : 221798347496868192925052046012804302178 (0xA6DCCED2ED2CB96C9D97455599810562)
Complete name : Death.in.Paradise.S13E02.Episode.2.1080p.iP.WEB-DL.AAC.2.0.HFR.H.264-BlackTV.mkv
Duration : 58 min 10 s
Overall bit rate mode : Variable
Overall bit rate : 4 880 kb/s

Video
ID : 1
Format : AVC
Format/Info : Advanced Video Codec
Format profile : [email protected]
Format settings : CABAC / 4 Ref Frames
Format settings, CABAC : Yes
Format settings, Reference frames : 4 frames
Codec ID : V_MPEG4/ISO/AVC
Duration : 58 min 10 s
Bit rate mode : Variable
Bit rate : 4 748 kb/s
Maximum bit rate : 12.0 Mb/s
Width : 1 920 pixels
Height : 1 080 pixels
Display aspect ratio : 16:9
Frame rate mode : Constant
Frame rate : 50.000 FPS
Color space : YUV
Chroma subsampling : 4:2:0
Bit depth : 8 bits
Scan type : Progressive
Bits/(Pixel*Frame) : 0.046
Stream size : 1.93 GiB (97%)
Language : English
Default : Yes
Forced : No
Color range : Limited
Color primaries : BT.709
Transfer characteristics : BT.709
Matrix coefficients : BT.709

Audio
ID : 2
Format : AAC LC
Format/Info : Advanced Audio Codec Low Complexity
Codec ID : A_AAC-2
Duration : 58 min 10 s
Bit rate : 128 kb/s
Channel(s) : 2 channels
Channel layout : L R
Sampling rate : 48.0 kHz
Frame rate : 46.875 FPS (1024 SPF)
Compression mode : Lossy
Stream size : 53.3 MiB (3%)
Language : English
Default : Yes
Forced : No

Text
ID : 3
Format : UTF-8
Codec ID : S_TEXT/UTF8
Codec ID/Info : UTF-8 Plain Text
Duration : 57 min 31 s
Bit rate : 87 b/s
Frame rate : 0.325 FPS
Count of elements : 1121
Stream size : 36.9 KiB (0%)
Title : United Kingdom (SDH)
Language : English
Default : No
Forced : No


点击图片可查看大图

软字幕无法在截图上展现,HDR版本/杜比视界版本截图会出现颜色异常,请使用支持的设备播放!



1 个附件 售价 大小 下载 时间

Death.in.Paradise.S13.1080p.iP.WEB-DL.AAC.2.0.HFR.H.264-BlackTV[1LOU.ME].torrent 0 金币 7.69K 91 次 14天前

#1楼
发帖时间:2024-02-13 09:58:43   |   回复数:0
游客组