BILL36
超凡入圣№

[2024] [大陆] [爱情] [WEB-1080P] 阿麦从军[第23-24集][国语配音/中文字幕].Fighting.for.Love.S01.2024.1080p.WEB-DL.H264.AAC-ZeroTV

-->

完整标题:阿麦从军[第23-24集][国语配音/中文字幕].Fighting.for.Love.S01.2024.1080p.WEB-DL.H264.AAC-ZeroTV 1.25GB



◎标  题 阿麦从军
◎译  名 电视剧版阿麦从军
◎年  代 2024
◎产  地 中国大陆
◎类  别 爱情 / 古装
◎语  言 汉语普通话
◎IMDb链接 https://www.imdb.com/title/tt31102313/
◎豆瓣链接 https://movie.douban.com/subject/26862282/
◎导  演 田少波 Shaobo Tian
◎编  剧 鲜橙 Xiancheng
◎演  员 张天爱 Tian'ai Zhang
      张昊唯 Haowei Zhang
      王瑞昌 Ruichang Wang
      高戈 Ge Gao
      杨童舒 Tongshu Yang
      尹铸胜 Zhusheng Yin
      王永泉 Yongquan Wang
      于洋 Yang Yu
      蒋韵兮 Jiang Yunxi
      严昆 Yan Kun

◎简  介
    南北朝时期,南齐靖国公惨遭杀害,他天真活泼、机灵聪慧的女儿麦穗突逢巨变,过上了独自漂泊、颠沛流离的生活。为报家仇,麦穗隐姓埋名踏上从军之路,以女儿之身投身军营。卸红妆,披战甲,在南齐先太子之子商易之的培养下,凭着聪明才智和执着坚韧,历经艰辛,克服一切困难,冲破重重困境,屡立战功,从一个小小的步兵一步步成长为名动四国的江北军统帅。原本只想通过从军为父母报仇的她也逐渐认识到战争不应该是任何人获得私利的武器。为了保家卫国,使百姓免遭战火之苦,拼尽全力,不是男儿胜似男儿,却在一次次交锋中,与敌军将领常钰青相知相惜,坠入情网,面对国仇家恨,麦穗为民绝情,为国弃爱,不纠缠于儿女私情,最终实现了父辈的遗愿,护得国泰民安。

部分资源为软字幕,移动端推荐播放器:MxPlayer,nPlayer,infuse ,其他播放器请自行尝试。

部分资源为软字幕,电脑端推荐播放器:PotPlayer,完美解码,KMPLAYER,其他播放器请自行尝试。

##### MediaInfo ######
General
Complete name : 阿麦从军.Fighting.for.Love.S01E23.2024.1080p.WEB-DL.H264.AAC-ZeroTV.mp4
Duration : 44 min 34 s
Overall bit rate mode : Variable
Overall bit rate : 2 003 kb/s

Video
ID : 1
Format : AVC
Format/Info : Advanced Video Codec
Format profile : High@L4
Format settings : CABAC / 3 Ref Frames
Format settings, CABAC : Yes
Format settings, Reference frames : 3 frames
Codec ID : avc1
Codec ID/Info : Advanced Video Coding
Duration : 44 min 33 s
Bit rate : 1 804 kb/s
Width : 1 920 pixels
Height : 800 pixels
Display aspect ratio : 2.40:1
Frame rate mode : Constant
Frame rate : 25.000 FPS
Color space : YUV
Chroma subsampling : 4:2:0
Bit depth : 8 bits
Scan type : Progressive
Bits/(Pixel*Frame) : 0.047
Stream size : 575 MiB (90%)
Color range : Limited
Color primaries : BT.709
Transfer characteristics : BT.709
Matrix coefficients : BT.709
Codec configuration box : avcC

Audio
ID : 2
Format : AAC LC
Format/Info : Advanced Audio Codec Low Complexity
Codec ID : mp4a-40-2
Duration : 44 min 34 s
Bit rate mode : Variable
Bit rate : 192 kb/s
Maximum bit rate : 203 kb/s
Channel(s) : 2 channels
Channel layout : L R
Sampling rate : 44.1 kHz
Frame rate : 43.066 FPS (1024 SPF)
Compression mode : Lossy
Stream size : 61.2 MiB (10%)
Default : Yes
Alternate group : 1


点击图片可查看大图

软字幕无法在截图上展现,HDR版本/杜比视界版本截图会出现颜色异常,请使用支持的设备播放!



1 个附件 售价 大小 下载 时间

Fighting.for.Love.S01.2024.1080p.WEB-DL.H264.AAC-ZeroTV[1LOU.ME].torrent 0 金币 5.98K 217 次 20天前

#1楼
发帖时间:2024-02-12 21:38:49   |   回复数:0
游客组