BILL36
超凡入圣№

[2011] [英国] [其它] [HDTV/HDrip] 风暴星球 第一季[全3集][中文字幕].Storm.Planets.S01.2011.1080p.WEB-DL.H264.AAC-DDHDTV 2.51GB

-->

完整标题:风暴星球 第一季[全3集][中文字幕].Storm.Planets.S01.2011.1080p.WEB-DL.H264.AAC-DDHDTV 2.51GB



◎标  题 风暴星球 第一季
◎片  名 Storm Planets Season 1
◎年  代 2011
◎产  地 英国
◎类  别 纪录片
◎语  言 英语
◎IMDb链接 https://www.imdb.com/title//
◎豆瓣链接 https://movie.douban.com/subject/11516702/

◎简  介
    我们所生存星球的天气拥有一种可怕的力量:从飓风到雷电,从海啸沙到尘暴 ,他们可以随意肆虐,并造成大规模杀伤。本纪录片谈论风暴世界的发现,详细描绘了风暴可能导致的对地球的破坏,采用和国际知名的科学家的访谈形式,结合以前未公布的数据,这迷人的三集揭示大自然的奇妙工作。

部分资源为软字幕,移动端推荐播放器:MxPlayer,nPlayer,infuse ,其他播放器请自行尝试。

部分资源为软字幕,电脑端推荐播放器:PotPlayer,完美解码,KMPLAYER,其他播放器请自行尝试。

##### MediaInfo ######
General
Complete name : Storm.Planets.S01E01.2011.1080p.WEB-DL.H264.AAC-DDHDTV.mp4
Duration : 48 min 9 s
Overall bit rate : 2 567 kb/s

Video
ID : 1
Format : AVC
Format/Info : Advanced Video Codec
Format profile : High@L4
Format settings : CABAC / 4 Ref Frames
Format settings, CABAC : Yes
Format settings, Reference frames : 4 frames
Codec ID : avc1
Codec ID/Info : Advanced Video Coding
Duration : 48 min 9 s
Bit rate : 2 369 kb/s
Width : 1 920 pixels
Height : 1 080 pixels
Display aspect ratio : 16:9
Frame rate mode : Constant
Frame rate : 25.000 FPS
Color space : YUV
Chroma subsampling : 4:2:0
Bit depth : 8 bits
Scan type : Progressive
Bits/(Pixel*Frame) : 0.046
Stream size : 816 MiB (92%)
Writing library : BiliBili H264 Encoder v1.0
Color range : Limited
Color primaries : BT.709
Transfer characteristics : BT.709
Matrix coefficients : BT.709
Codec configuration box : avcC

Audio
ID : 2
Format : AAC LC
Format/Info : Advanced Audio Codec Low Complexity
Codec ID : mp4a-40-2
Duration : 48 min 9 s
Bit rate mode : Constant
Bit rate : 192 kb/s
Channel(s) : 2 channels
Channel layout : L R
Sampling rate : 48.0 kHz
Frame rate : 46.875 FPS (1024 SPF)
Compression mode : Lossy
Stream size : 66.1 MiB (7%)
Default : Yes
Alternate group : 1




1 个附件 售价 大小 下载 时间

Storm.Planets.S01.2011.1080p.WEB-DL.H264.AAC-DDHDTV[1LOU.ME].torrent 0 金币 9.18K 399 次 2月前

#1楼
发帖时间:2023-12-02 13:27:12   |   回复数:0
游客组