BILL36
超凡入圣№

[2023] [日本] [剧情] [WEB-4K] 葬送的芙莉莲[第13集][简繁英字幕].Sousou.no.Frieren.S01.2023.2160p.B-Global.WEB-DL.x264.AAC-DD

-->

完整标题:葬送的芙莉莲[第13集][简繁英字幕].Sousou.no.Frieren.S01.2023.2160p.B-Global.WEB-DL.x264.AAC-DDHDTV 1.69GB



◎标  题 葬送的芙莉莲
◎译  名 Frieren: Beyond Journey's End
◎片  名 葬送のフリーレン
◎年  代 2023
◎产  地 日本
◎类  别 剧情 / 动画 / 奇幻 / 冒险
◎语  言 日语
◎IMDb评分 8.8/10 (1052人评价)
◎IMDb链接 https://www.imdb.com/title/tt22248376/
◎豆瓣评分 9.5/10 (7304人评价)
◎豆瓣链接 https://movie.douban.com/subject/36093351/
◎导  演 斋藤圭一郎 Saitou Keiichirou
◎编  剧 铃木智寻 Tomohiro Suzuki
      阿部司 Tsukasa Abe
      山田鐘人 Kanehito Yamada
◎演  员 种崎敦美 Atsumi Tanezaki
      冈本信彦 Nobuhiko Okamoto
      东地宏树 Hiroki Touchi
      上田耀司 Yoji Ueda
      大铃功起 Ōsuzu Kōki
      小林千晃 Chiaki Kobayashi
      市之濑加那 Kana Ichinose

◎简  介
    中央大陆古老城邦,人们夹道欢呼,为击败了魔王的四人组高声喝彩。这四个人分别是勇者辛美尔(冈本信彦 配音)、精灵魔导师芙莉莲(种崎敦美 配音)、僧侣海塔(东地宏树 配音)以及矮人族战士艾泽(上田耀司 配音)。在王宫盛大的晚宴上,四位好朋友相聊甚欢,并且共同回忆着征途中的快乐种种。当天上流星划过,他们相约去一个更好的地方欣赏这个五十年一遇的流星雨。在此之后,芙莉莲告别好友们,独自踏上收集魔法的旅程。时光倏忽而逝,转眼五十年过去,她如约回到主城。而与这个几乎拥有不死之身且不会衰老的精灵形成鲜明对比的是,曾经英俊帅气、孔武有力的朋友们都已经衰老。他们追昔过往,又无奈面对死亡。这让芙莉莲的心中产生了波动……   本片改编自原作山田钟人,作画阿部司的同名漫画。

部分资源为软字幕,移动端推荐播放器:MxPlayer,nPlayer,infuse ,其他播放器请自行尝试。

部分资源为软字幕,电脑端推荐播放器:PotPlayer,完美解码,KMPLAYER,其他播放器请自行尝试。

##### MediaInfo ######
General
Unique ID : 212678117498045554451309481300253876973 (0xA00050C4A4B21D87A2BA7A59DEAE22ED)
Complete name : Sousou.no.Frieren.S01E13.2023.2160p.WEB-DL.x264.AAC-DDHDTV.mkv
Duration : 24 min 34 s
Overall bit rate : 9 865 kb/s

Video
ID : 1
Format : AVC
Format/Info : Advanced Video Codec
Format profile : [email protected]
Format settings : CABAC / 5 Ref Frames
Format settings, CABAC : Yes
Format settings, Reference frames : 5 frames
Codec ID : V_MPEG4/ISO/AVC
Duration : 24 min 30 s
Bit rate : 9 700 kb/s
Width : 3 840 pixels
Height : 2 160 pixels
Display aspect ratio : 16:9
Frame rate mode : Constant
Frame rate : 23.976 (24000/1001) FPS
Original frame rate : 23.976 (23976/1000) FPS
Color space : YUV
Chroma subsampling : 4:2:0
Bit depth : 8 bits
Scan type : Progressive
Bits/(Pixel*Frame) : 0.049
Stream size : 1.66 GiB (98%)
Title : Japanese
Language : Japanese
Default : Yes
Forced : No
Color range : Limited
Color primaries : BT.709
Transfer characteristics : BT.709
Matrix coefficients : BT.709

Audio
ID : 2
Format : AAC LC
Format/Info : Advanced Audio Codec Low Complexity
Codec ID : A_AAC-2
Duration : 24 min 30 s
Bit rate : 192 kb/s
Channel(s) : 2 channels
Channel layout : L R
Sampling rate : 48.0 kHz
Frame rate : 46.875 FPS (1024 SPF)
Compression mode : Lossy
Stream size : 33.5 MiB (2%)
Title : Japanese
Language : Japanese
Default : Yes
Forced : No

Text #1
ID : 3
Format : UTF-8
Codec ID : S_TEXT/UTF8
Codec ID/Info : UTF-8 Plain Text
Duration : 24 min 28 s
Bit rate : 64 b/s
Frame rate : 0.295 FPS
Count of elements : 433
Stream size : 11.6 KiB (0%)
Title : Chinese Simplified
Language : Chinese
Default : Yes
Forced : No

Text #2
ID : 4
Format : UTF-8
Codec ID : S_TEXT/UTF8
Codec ID/Info : UTF-8 Plain Text
Duration : 24 min 28 s
Bit rate : 64 b/s
Frame rate : 0.295 FPS
Count of elements : 433
Stream size : 11.6 KiB (0%)
Title : Chinese Traditional
Language : Chinese
Default : No
Forced : No

Text #3
ID : 5
Format : UTF-8
Codec ID : S_TEXT/UTF8
Codec ID/Info : UTF-8 Plain Text
Duration : 24 min 27 s
Bit rate : 69 b/s
Frame rate : 0.250 FPS
Count of elements : 367
Stream size : 12.4 KiB (0%)
Title : English
Language : English
Default : No
Forced : No

Text #4
ID : 6
Format : UTF-8
Codec ID : S_TEXT/UTF8
Codec ID/Info : UTF-8 Plain Text
Duration : 24 min 27 s
Bit rate : 188 b/s
Frame rate : 0.313 FPS
Count of elements : 460
Stream size : 33.8 KiB (0%)
Title : ???????
Language : Thai
Default : No
Forced : No

Text #5
ID : 7
Format : UTF-8
Codec ID : S_TEXT/UTF8
Codec ID/Info : UTF-8 Plain Text
Duration : 24 min 32 s
Bit rate : 67 b/s
Frame rate : 0.247 FPS
Count of elements : 363
Stream size : 12.1 KiB (0%)
Title : Bahasa Indonesia
Language : Indonesian
Default : No
Forced : No


点击图片可查看大图

软字幕无法在截图上展现,HDR版本/杜比视界版本截图会出现颜色异常,请使用支持的设备播放!



1 个附件 售价 大小 下载 时间

Sousou.no.Frieren.S01.2023.2160p.B-Global.WEB-DL.x264.AAC-DDHDTV[1LOU.ME].torrent 0 金币 6.97K 1309 次 2月前

#1楼
发帖时间:2023-12-02 13:26:32   |   回复数:0
游客组