BILL36
超凡入圣№

[2023] [日本] [动画] [HDTV/HDrip] 破灭之国[第09集][简繁英字幕].Hametsu.no.Oukoku.S01.2023.1080p.B-Global.WEB-DL.x264.AAC-DDHD

-->

完整标题:破灭之国[第09集][简繁英字幕].Hametsu.no.Oukoku.S01.2023.1080p.B-Global.WEB-DL.x264.AAC-DDHDTV 0.28GB



◎标  题 破灭之国
◎片  名 はめつのおうこく
◎年  代 2023
◎产  地 日本
◎类  别 动画
◎语  言 日语
◎IMDb链接 https://www.imdb.com/title//
◎豆瓣评分 5.5/10 (212人评价)
◎豆瓣链接 https://movie.douban.com/subject/36209128/
◎导  演 元永庆太郎 Keitarou Motonaga
◎编  剧 鸿野贵光 Kouno Takamitsu
◎演  员 石川界人 Kaito Ishikawa
      和气杏未 Azumi Waki

◎简  介
    自古以来被神送往人间并一直在帮助人类的魔女一族,因为超工业革命的发展变得对人类来说已不再是必要的存在,而是一种威胁。人类开始狩猎魔女以消除魔法的不科学力量。阿多尼斯是一个年轻的魔女学徒,当他眼睁睁的看着倾慕的魔女导师克洛伊被猎杀,痛恨这一切的他决心用所学到的魔法向人类宣誓报仇。《破灭之国》是作者yoruhashi创作的漫画作品。近日官宣动画化!

部分资源为软字幕,移动端推荐播放器:MxPlayer,nPlayer,infuse ,其他播放器请自行尝试。

部分资源为软字幕,电脑端推荐播放器:PotPlayer,完美解码,KMPLAYER,其他播放器请自行尝试。

##### MediaInfo ######
General
Unique ID : 84107286065170111618616944119765007150 (0x3F46795D230824442B02E94B71A3FB2E)
Complete name : Hametsu.no.Oukoku.S01E09.2023.1080p.WEB-DL.x264.AAC-DDHDTV.mkv
Duration : 24 min 12 s
Overall bit rate : 1 634 kb/s

Video
ID : 1
Format : AVC
Format/Info : Advanced Video Codec
Format profile : High@L5
Format settings : CABAC / 8 Ref Frames
Format settings, CABAC : Yes
Format settings, Reference frames : 8 frames
Codec ID : V_MPEG4/ISO/AVC
Duration : 24 min 11 s
Bit rate : 1 436 kb/s
Width : 1 920 pixels
Height : 1 080 pixels
Display aspect ratio : 16:9
Frame rate mode : Constant
Frame rate : 23.976 (24000/1001) FPS
Original frame rate : 23.976 (23976/1000) FPS
Color space : YUV
Chroma subsampling : 4:2:0
Bit depth : 8 bits
Scan type : Progressive
Bits/(Pixel*Frame) : 0.029
Stream size : 249 MiB (88%)
Title : Japanese
Language : Japanese
Default : Yes
Forced : No
Color range : Limited
Color primaries : BT.709
Transfer characteristics : BT.709
Matrix coefficients : BT.709

Audio
ID : 2
Format : AAC LC
Format/Info : Advanced Audio Codec Low Complexity
Codec ID : A_AAC-2
Duration : 24 min 12 s
Bit rate : 192 kb/s
Channel(s) : 2 channels
Channel layout : L R
Sampling rate : 48.0 kHz
Frame rate : 46.875 FPS (1024 SPF)
Compression mode : Lossy
Stream size : 33.6 MiB (12%)
Title : Japanese
Language : Japanese
Default : Yes
Forced : No

Text #1
ID : 3
Format : UTF-8
Codec ID : S_TEXT/UTF8
Codec ID/Info : UTF-8 Plain Text
Duration : 22 min 31 s
Bit rate : 45 b/s
Frame rate : 0.209 FPS
Count of elements : 282
Stream size : 7.43 KiB (0%)
Title : Chinese Simplified
Language : Chinese
Default : Yes
Forced : No

Text #2
ID : 4
Format : UTF-8
Codec ID : S_TEXT/UTF8
Codec ID/Info : UTF-8 Plain Text
Duration : 22 min 31 s
Bit rate : 45 b/s
Frame rate : 0.209 FPS
Count of elements : 282
Stream size : 7.44 KiB (0%)
Title : Chinese Traditional
Language : Chinese
Default : No
Forced : No

Text #3
ID : 5
Format : UTF-8
Codec ID : S_TEXT/UTF8
Codec ID/Info : UTF-8 Plain Text
Duration : 22 min 31 s
Bit rate : 49 b/s
Frame rate : 0.204 FPS
Count of elements : 276
Stream size : 8.24 KiB (0%)
Title : English
Language : English
Default : No
Forced : No

Text #4
ID : 6
Format : UTF-8
Codec ID : S_TEXT/UTF8
Codec ID/Info : UTF-8 Plain Text
Duration : 22 min 31 s
Bit rate : 129 b/s
Frame rate : 0.220 FPS
Count of elements : 297
Stream size : 21.3 KiB (0%)
Title : ???????
Language : Thai
Default : No
Forced : No

Text #5
ID : 7
Format : UTF-8
Codec ID : S_TEXT/UTF8
Codec ID/Info : UTF-8 Plain Text
Duration : 22 min 31 s
Bit rate : 49 b/s
Frame rate : 0.209 FPS
Count of elements : 283
Stream size : 8.19 KiB (0%)
Title : Bahasa Indonesia
Language : Indonesian
Default : No
Forced : No


点击图片可查看大图

软字幕无法在截图上展现,HDR版本/杜比视界版本截图会出现颜色异常,请使用支持的设备播放!



1 个附件 售价 大小 下载 时间

Hametsu.no.Oukoku.S01.2023.1080p.B-Global.WEB-DL.x264.AAC-DDHDTV[1LOU.ME].torrent 0 金币 3.43K 98 次 2月前

#1楼
发帖时间:2023-12-02 13:18:25   |   回复数:0
游客组