BILL36
超凡入圣№

[2009] [美国] [剧情] [WEB-1080P] 识骨寻踪 第五季[全22集][简繁英字幕].Bones.S05.1080p.DSNP.WEB-DL.DDP.5.1.H.264-BlackTV 44.57GB

-->

完整标题:识骨寻踪 第五季[全22集][简繁英字幕].Bones.S05.1080p.DSNP.WEB-DL.DDP.5.1.H.264-BlackTV 44.57GB



◎标  题 识骨寻踪 第五季
◎译  名 凶骨 第五季
◎片  名 Bones Season 5
◎年  代 2009
◎产  地 美国
◎类  别 剧情 / 悬疑 / 犯罪
◎语  言 英语 / 西班牙语
◎IMDb评分 7.9/10 (1112人评价)
◎IMDb链接 https://www.imdb.com/title/tt1475714/
◎豆瓣评分 9.1/10 (8815人评价)
◎豆瓣链接 https://movie.douban.com/subject/4011252/
◎导  演 杰夫·伍尔诺 Jeff Woolnough
      艾莉森·利迪-布朗 Allison Liddi-Brown
◎编  剧 约什·伯曼 Josh Berman
◎演  员 艾米丽·丹斯切尔 Emily Deschanel
      大卫·伯伦纳兹 David Boreanaz
      米谢拉·康琳 Michaela Conlin
      罗勃·梅耶斯 Rob Mayes
      阿曼达·舒尔 Amanda Schull
      安德鲁·J.韦斯特 Andrew J. West
      海蒂·索兹蒙 Heidi Sulzman
      戴德里克·巴德 Diedrich Bader
      玛姬·贝尔德 Maggie Baird
      珊莉·卡斯韦尔 Shanley Caswell
      吉莉安 巴赫 Jillian Bach
      T·J·塞恩 T.J. Thyne
      卡特·麦金太尔 Carter MacIntyre
      瑞恩·卡特赖特 Ryan Cartwright
      劳拉·海斯勒 Laura Heisler
      佩吉·瓦哈达特 Pej Vahdat
      莎拉·拉弗提 Sarah Rafferty
      艾瑞克·米勒甘 Eric Millegan
      约翰·弗朗西斯·戴利 John Francis Daley
      黛博拉·莱西 Deborah Lacey

◎简  介
    以下来自YDY:http://www.sfileydy.com/bbs/viewthread.php?tid=295981&extra=page%3D1   《识骨寻踪》的创作灵感来源于法医人类学家和长篇小说家Kathy Reichs的真实生活。   主人公Temperance Brennan博士,是一名法医人类学家,能根据受害者的尸骨找到常人难以发现的线索,因此结交搭档FBI探员Booth,与斜眼小分队的成员们一起研究腐烂尸骨背后的故事。共事者中有爱好昆虫和微生物研究的Hodgins,有能根据骨骸重塑被害人形象的"艺术家"Angela,有外表严厉却不乏幽默的上司Saroyan博士,还有可爱的心理医生小甜甜博士...   上一季中,因Zack的离开,小分队里开始了轮班制,形形色色的实习生们为观众带来不少笑料,成为了该剧的新亮点。但最牵动观众的还是Booth和Bones这对冤家的暧昧关系,手术醒来的Booth要怎么面对"老婆"Bones呢,敬请期待9月17日开播的《识骨寻踪》第五季。

部分资源为软字幕,移动端推荐播放器:MxPlayer,nPlayer,infuse ,其他播放器请自行尝试。

部分资源为软字幕,电脑端推荐播放器:PotPlayer,完美解码,KMPLAYER,其他播放器请自行尝试。

##### MediaInfo ######
General
Unique ID : 90517105850425084541123737307160766002 (0x4418F5E0F249DDD1556B15A3829BE632)
Complete name : Bones.S05E01.Harbinger.in.a.Fountain.1080p.DSNP.WEB-DL.DDP.5.1.H.264-BlackTV.mkv
Duration : 44 min 1 s
Overall bit rate mode : Variable
Overall bit rate : 7 168 kb/s

Video
ID : 1
Format : AVC
Format/Info : Advanced Video Codec
Format profile : High@L4
Format settings : CABAC / 4 Ref Frames
Format settings, CABAC : Yes
Format settings, Reference frames : 4 frames
Codec ID : V_MPEG4/ISO/AVC
Duration : 44 min 1 s
Bit rate mode : Variable
Bit rate : 6 906 kb/s
Maximum bit rate : 12.7 Mb/s
Width : 1 920 pixels
Height : 1 080 pixels
Display aspect ratio : 16:9
Frame rate mode : Constant
Frame rate : 23.976 (24000/1001) FPS
Color space : YUV
Chroma subsampling : 4:2:0
Bit depth : 8 bits
Scan type : Progressive
Bits/(Pixel*Frame) : 0.139
Stream size : 2.12 GiB (96%)
Language : English
Default : Yes
Forced : No
Color range : Limited
Color primaries : BT.709
Transfer characteristics : BT.709
Matrix coefficients : BT.709

Audio
ID : 2
Format : E-AC-3
Format/Info : Enhanced AC-3
Commercial name : Dolby Digital Plus
Codec ID : A_EAC3
Duration : 44 min 1 s
Bit rate mode : Constant
Bit rate : 256 kb/s
Channel(s) : 6 channels
Channel layout : L R C LFE Ls Rs
Sampling rate : 48.0 kHz
Frame rate : 31.250 FPS (1536 SPF)
Compression mode : Lossy
Stream size : 80.6 MiB (4%)
Language : English
Service kind : Complete Main
Default : Yes
Forced : No

Text #1
ID : 3
Format : UTF-8
Codec ID : S_TEXT/UTF8
Codec ID/Info : UTF-8 Plain Text
Duration : 43 min 53 s
Bit rate : 104 b/s
Frame rate : 0.283 FPS
Count of elements : 746
Stream size : 33.6 KiB (0%)
Title : SDH
Language : English
Default : No
Forced : No

Text #2
ID : 4
Format : UTF-8
Codec ID : S_TEXT/UTF8
Codec ID/Info : UTF-8 Plain Text
Duration : 43 min 16 s
Bit rate : 82 b/s
Frame rate : 0.340 FPS
Count of elements : 883
Stream size : 26.3 KiB (0%)
Title : Simplified
Language : Chinese
Default : No
Forced : No

Text #3
ID : 5
Format : UTF-8
Codec ID : S_TEXT/UTF8
Codec ID/Info : UTF-8 Plain Text
Duration : 43 min 16 s
Bit rate : 84 b/s
Frame rate : 0.340 FPS
Count of elements : 883
Stream size : 26.7 KiB (0%)
Title : Traditional
Language : Chinese
Default : No
Forced : No

Text #4
ID : 6
Format : UTF-8
Codec ID : S_TEXT/UTF8
Codec ID/Info : UTF-8 Plain Text
Duration : 43 min 16 s
Bit rate : 89 b/s
Frame rate : 0.295 FPS
Count of elements : 765
Stream size : 28.4 KiB (0%)
Language : Czech
Default : No
Forced : No

Text #5
ID : 7
Format : UTF-8
Codec ID : S_TEXT/UTF8
Codec ID/Info : UTF-8 Plain Text
Duration : 43 min 53 s
Bit rate : 89 b/s
Frame rate : 0.261 FPS
Count of elements : 688
Stream size : 28.6 KiB (0%)
Language : Danish
Default : No
Forced : No

Text #6
ID : 8
Format : UTF-8
Codec ID : S_TEXT/UTF8
Codec ID/Info : UTF-8 Plain Text
Duration : 43 min 55 s
Bit rate : 89 b/s
Frame rate : 0.260 FPS
Count of elements : 685
Stream size : 28.7 KiB (0%)
Language : German
Default : No
Forced : No

Text #7
ID : 9
Format : UTF-8
Codec ID : S_TEXT/UTF8
Codec ID/Info : UTF-8 Plain Text
Duration : 43 min 16 s
Bit rate : 121 b/s
Frame rate : 0.193 FPS
Count of elements : 502
Stream size : 38.5 KiB (0%)
Language : Greek
Default : No
Forced : No

Text #8
ID : 10
Format : UTF-8
Codec ID : S_TEXT/UTF8
Codec ID/Info : UTF-8 Plain Text
Duration : 43 min 53 s
Bit rate : 90 b/s
Frame rate : 0.264 FPS
Count of elements : 696
Stream size : 29.2 KiB (0%)
Title : Latin America
Language : Spanish
Default : No
Forced : No

Text #9
ID : 11
Format : UTF-8
Codec ID : S_TEXT/UTF8
Codec ID/Info : UTF-8 Plain Text
Duration : 43 min 17 s
Bit rate : 87 b/s
Frame rate : 0.251 FPS
Count of elements : 651
Stream size : 27.8 KiB (0%)
Language : Spanish
Default : No
Forced : No

Text #10
ID : 12
Format : UTF-8
Codec ID : S_TEXT/UTF8
Codec ID/Info : UTF-8 Plain Text
Duration : 43 min 53 s
Bit rate : 76 b/s
Frame rate : 0.261 FPS
Count of elements : 688
Stream size : 24.5 KiB (0%)
Language : Finnish
Default : No
Forced : No

Text #11
ID : 13
Format : UTF-8
Codec ID : S_TEXT/UTF8
Codec ID/Info : UTF-8 Plain Text
Duration : 43 min 15 s
Bit rate : 106 b/s
Frame rate : 0.269 FPS
Count of elements : 699
Stream size : 33.8 KiB (0%)
Language : French
Default : No
Forced : No

Text #12
ID : 14
Format : UTF-8
Codec ID : S_TEXT/UTF8
Codec ID/Info : UTF-8 Plain Text
Duration : 43 min 53 s
Bit rate : 92 b/s
Frame rate : 0.291 FPS
Count of elements : 766
Stream size : 29.6 KiB (0%)
Language : Hungarian
Default : No
Forced : No

Text #13
ID : 15
Format : UTF-8
Codec ID : S_TEXT/UTF8
Codec ID/Info : UTF-8 Plain Text
Duration : 43 min 53 s
Bit rate : 87 b/s
Frame rate : 0.274 FPS
Count of elements : 721
Stream size : 28.2 KiB (0%)
Language : Italian
Default : No
Forced : No

Text #14
ID : 16
Format : UTF-8
Codec ID : S_TEXT/UTF8
Codec ID/Info : UTF-8 Plain Text
Duration : 43 min 16 s
Bit rate : 66 b/s
Frame rate : 0.266 FPS
Count of elements : 691
Stream size : 21.1 KiB (0%)
Language : Japanese
Default : No
Forced : No

Text #15
ID : 17
Format : UTF-8
Codec ID : S_TEXT/UTF8
Codec ID/Info : UTF-8 Plain Text
Duration : 43 min 18 s
Bit rate : 100 b/s
Frame rate : 0.263 FPS
Count of elements : 682
Stream size : 32.0 KiB (0%)
Language : Korean
Default : No
Forced : No

Text #16
ID : 18
Format : UTF-8
Codec ID : S_TEXT/UTF8
Codec ID/Info : UTF-8 Plain Text
Duration : 43 min 52 s
Bit rate : 84 b/s
Frame rate : 0.261 FPS
Count of elements : 686
Stream size : 27.1 KiB (0%)
Language : Dutch
Default : No
Forced : No

Text #17
ID : 19
Format : UTF-8
Codec ID : S_TEXT/UTF8
Codec ID/Info : UTF-8 Plain Text
Duration : 43 min 53 s
Bit rate : 84 b/s
Frame rate : 0.261 FPS
Count of elements : 688
Stream size : 27.3 KiB (0%)
Language : Norwegian
Default : No
Forced : No

Text #18
ID : 20
Format : UTF-8
Codec ID : S_TEXT/UTF8
Codec ID/Info : UTF-8 Plain Text
Duration : 43 min 17 s
Bit rate : 79 b/s
Frame rate : 0.258 FPS
Count of elements : 671
Stream size : 25.1 KiB (0%)
Language : Polish
Default : No
Forced : No

Text #19
ID : 21
Format : UTF-8
Codec ID : S_TEXT/UTF8
Codec ID/Info : UTF-8 Plain Text
Duration : 43 min 53 s
Bit rate : 85 b/s
Frame rate : 0.263 FPS
Count of elements : 692
Stream size : 27.5 KiB (0%)
Title : Brazil
Language : Portuguese
Default : No
Forced : No

Text #20
ID : 22
Format : UTF-8
Codec ID : S_TEXT/UTF8
Codec ID/Info : UTF-8 Plain Text
Duration : 43 min 17 s
Bit rate : 91 b/s
Frame rate : 0.260 FPS
Count of elements : 675
Stream size : 28.9 KiB (0%)
Language : Portuguese
Default : No
Forced : No

Text #21
ID : 23
Format : UTF-8
Codec ID : S_TEXT/UTF8
Codec ID/Info : UTF-8 Plain Text
Duration : 43 min 16 s
Bit rate : 88 b/s
Frame rate : 0.290 FPS
Count of elements : 752
Stream size : 28.0 KiB (0%)
Language : Romanian
Default : No
Forced : No

Text #22
ID : 24
Format : UTF-8
Codec ID : S_TEXT/UTF8
Codec ID/Info : UTF-8 Plain Text
Duration : 43 min 53 s
Bit rate : 80 b/s
Frame rate : 0.264 FPS
Count of elements : 696
Stream size : 25.9 KiB (0%)
Language : Swedish
Default : No
Forced : No

Text #23
ID : 25
Format : UTF-8
Codec ID : S_TEXT/UTF8
Codec ID/Info : UTF-8 Plain Text
Duration : 43 min 16 s
Bit rate : 92 b/s
Frame rate : 0.305 FPS
Count of elements : 791
Stream size : 29.4 KiB (0%)
Language : Turkish
Default : No
Forced : No

Menu
00:06:41.943 : en:Intro
00:07:14.058 : en:Scene 1
00:43:24.310 : en:Credits


点击图片可查看大图

软字幕无法在截图上展现,HDR版本/杜比视界版本截图会出现颜色异常,请使用支持的设备播放!



1 个附件 售价 大小 下载 时间

Bones.S05.1080p.DSNP.WEB-DL.DDP.5.1.H.264-BlackTV[1LOU.ME].torrent 0 金币 116.53K 455 次 2月前

#1楼
发帖时间:2023-12-02 13:17:01   |   回复数:0
游客组