BILL36
超凡入圣№

[2008] [美国] [剧情] [WEB-1080P] 识骨寻踪 第四季[全26集][简繁英字幕].Bones.S04.1080p.DSNP.WEB-DL.DDP.5.1.H.264-BlackTV 63.24GB

-->

完整标题:识骨寻踪 第四季[全26集][简繁英字幕].Bones.S04.1080p.DSNP.WEB-DL.DDP.5.1.H.264-BlackTV 63.24GB



◎标  题 识骨寻踪 第四季
◎译  名 凶骨 第四季
◎片  名 Bones Season 4
◎年  代 2008
◎产  地 美国
◎类  别 剧情 / 爱情 / 悬疑 / 犯罪
◎语  言 英语 / 西班牙语
◎IMDb评分 7.5/10 (1239人评价)
◎IMDb链接 https://www.imdb.com/title/tt1248433/
◎豆瓣评分 9.1/10 (9597人评价)
◎豆瓣链接 https://movie.douban.com/subject/3231622/
◎导  演 伊恩·托尼顿 Ian Toynton
      布拉德·特纳 Brad Turner (I)
      艾莉森·利迪-布朗 Allison Liddi-Brown
      史蒂文·德保罗 Steven DePaul
      米兰·赫伊洛夫 Milan Cheylov
      杰夫·伍尔诺 Jeff Woolnough
◎编  剧 哈特·汉森 Hart Hanson
◎演  员 艾米丽·丹斯切尔 Emily Deschanel
      大卫·伯伦纳兹 David Boreanaz
      米谢拉·康琳 Michaela Conlin
      T·J·塞恩 T.J. Thyne
      克里斯托弗·古德曼 Christopher Goodman
      艾德·科尔曼 Ed Coleman
      丹尼尔·卢 Daniel Lue
      斯托尼·威斯特摩兰 Stoney Westmoreland
      安德鲁·巴肯 Andrew Buchan
      查德·洛 Chad Lowe
      斯科特·麦克纳里 Scoot McNairy
      迈克尔格雷特泰瑞 Michael Grant Terry
      艾瑞克·米勒甘 Eric Millegan
      约翰·弗朗西斯·戴利 John Francis Daley
      吉娜·托瑞斯 Gina Torres
      马伊姆·拜力克 Mayim Bialik
      斯蒂芬·弗雷 Stephen Fry
      瑞恩·卡特赖特 Ryan Cartwright
      杰米·亚历山大 Jaimie Alexander
      塔彭丝·米德尔顿 Tuppence Middleton
      马吉纳·托娃 Mageina Tovah

◎简  介
    After doing a guest lecture at a British University, Dr. Brennan and Booth are asked to investigate the death of a young woman. Her father is a wealthy American businessman working in the U.K.. Their counterparts assist them in the investigation. Meanwhile Angela's husband arrives at the Jeffersonian, he is not interested in divorcing her.

部分资源为软字幕,移动端推荐播放器:MxPlayer,nPlayer,infuse ,其他播放器请自行尝试。

部分资源为软字幕,电脑端推荐播放器:PotPlayer,完美解码,KMPLAYER,其他播放器请自行尝试。

##### MediaInfo ######
General
Unique ID : 261218971163767823860921717291141338730 (0xC484F1A0D9B5241A07AABFB50920966A)
Complete name : Bones.S04E01.The.Yanks.in.the.UK.-.Part.1.1080p.DSNP.WEB-DL.DDP.5.1.H.264-BlackTV.mkv
Duration : 43 min 52 s
Overall bit rate mode : Variable
Overall bit rate : 8 061 kb/s

Video
ID : 1
Format : AVC
Format/Info : Advanced Video Codec
Format profile : High@L4
Format settings : CABAC / 4 Ref Frames
Format settings, CABAC : Yes
Format settings, Reference frames : 4 frames
Codec ID : V_MPEG4/ISO/AVC
Duration : 43 min 52 s
Bit rate mode : Variable
Bit rate : 7 798 kb/s
Maximum bit rate : 12.7 Mb/s
Width : 1 920 pixels
Height : 1 080 pixels
Display aspect ratio : 16:9
Frame rate mode : Constant
Frame rate : 23.976 (24000/1001) FPS
Color space : YUV
Chroma subsampling : 4:2:0
Bit depth : 8 bits
Scan type : Progressive
Bits/(Pixel*Frame) : 0.157
Stream size : 2.39 GiB (97%)
Language : English
Default : Yes
Forced : No
Color range : Limited
Color primaries : BT.709
Transfer characteristics : BT.709
Matrix coefficients : BT.709

Audio
ID : 2
Format : E-AC-3
Format/Info : Enhanced AC-3
Commercial name : Dolby Digital Plus
Codec ID : A_EAC3
Duration : 43 min 52 s
Bit rate mode : Constant
Bit rate : 256 kb/s
Channel(s) : 6 channels
Channel layout : L R C LFE Ls Rs
Sampling rate : 48.0 kHz
Frame rate : 31.250 FPS (1536 SPF)
Compression mode : Lossy
Stream size : 80.3 MiB (3%)
Language : English
Service kind : Complete Main
Default : Yes
Forced : No

Text #1
ID : 3
Format : UTF-8
Codec ID : S_TEXT/UTF8
Codec ID/Info : UTF-8 Plain Text
Duration : 43 min 46 s
Bit rate : 112 b/s
Frame rate : 0.308 FPS
Count of elements : 808
Stream size : 36.2 KiB (0%)
Title : SDH
Language : English
Default : No
Forced : No

Text #2
ID : 4
Format : UTF-8
Codec ID : S_TEXT/UTF8
Codec ID/Info : UTF-8 Plain Text
Duration : 43 min 8 s
Bit rate : 90 b/s
Frame rate : 0.326 FPS
Count of elements : 845
Stream size : 28.5 KiB (0%)
Title : Simplified
Language : Chinese
Default : No
Forced : No

Text #3
ID : 5
Format : UTF-8
Codec ID : S_TEXT/UTF8
Codec ID/Info : UTF-8 Plain Text
Duration : 43 min 8 s
Bit rate : 90 b/s
Frame rate : 0.326 FPS
Count of elements : 845
Stream size : 28.7 KiB (0%)
Title : Traditional
Language : Chinese
Default : No
Forced : No

Text #4
ID : 6
Format : UTF-8
Codec ID : S_TEXT/UTF8
Codec ID/Info : UTF-8 Plain Text
Duration : 43 min 42 s
Bit rate : 100 b/s
Frame rate : 0.307 FPS
Count of elements : 804
Stream size : 32.2 KiB (0%)
Language : Czech
Default : No
Forced : No

Text #5
ID : 7
Format : UTF-8
Codec ID : S_TEXT/UTF8
Codec ID/Info : UTF-8 Plain Text
Duration : 43 min 45 s
Bit rate : 96 b/s
Frame rate : 0.298 FPS
Count of elements : 782
Stream size : 30.9 KiB (0%)
Language : Danish
Default : No
Forced : No

Text #6
ID : 8
Format : UTF-8
Codec ID : S_TEXT/UTF8
Codec ID/Info : UTF-8 Plain Text
Duration : 43 min 44 s
Bit rate : 109 b/s
Frame rate : 0.297 FPS
Count of elements : 780
Stream size : 35.1 KiB (0%)
Language : German
Default : No
Forced : No

Text #7
ID : 9
Format : UTF-8
Codec ID : S_TEXT/UTF8
Codec ID/Info : UTF-8 Plain Text
Duration : 43 min 4 s
Bit rate : 178 b/s
Frame rate : 0.274 FPS
Count of elements : 707
Stream size : 56.2 KiB (0%)
Language : Greek
Default : No
Forced : No

Text #8
ID : 10
Format : UTF-8
Codec ID : S_TEXT/UTF8
Codec ID/Info : UTF-8 Plain Text
Duration : 43 min 45 s
Bit rate : 102 b/s
Frame rate : 0.286 FPS
Count of elements : 751
Stream size : 32.7 KiB (0%)
Title : Latin America
Language : Spanish
Default : No
Forced : No

Text #9
ID : 11
Format : UTF-8
Codec ID : S_TEXT/UTF8
Codec ID/Info : UTF-8 Plain Text
Duration : 43 min 48 s
Bit rate : 98 b/s
Frame rate : 0.297 FPS
Count of elements : 781
Stream size : 31.7 KiB (0%)
Language : Spanish
Default : No
Forced : No

Text #10
ID : 12
Format : UTF-8
Codec ID : S_TEXT/UTF8
Codec ID/Info : UTF-8 Plain Text
Duration : 43 min 45 s
Bit rate : 100 b/s
Frame rate : 0.298 FPS
Count of elements : 782
Stream size : 32.2 KiB (0%)
Language : Finnish
Default : No
Forced : No

Text #11
ID : 13
Format : UTF-8
Codec ID : S_TEXT/UTF8
Codec ID/Info : UTF-8 Plain Text
Duration : 43 min 48 s
Bit rate : 112 b/s
Frame rate : 0.300 FPS
Count of elements : 789
Stream size : 36.3 KiB (0%)
Language : French
Default : No
Forced : No

Text #12
ID : 14
Format : UTF-8
Codec ID : S_TEXT/UTF8
Codec ID/Info : UTF-8 Plain Text
Duration : 43 min 3 s
Bit rate : 102 b/s
Frame rate : 0.307 FPS
Count of elements : 793
Stream size : 32.3 KiB (0%)
Language : Hungarian
Default : No
Forced : No

Text #13
ID : 15
Format : UTF-8
Codec ID : S_TEXT/UTF8
Codec ID/Info : UTF-8 Plain Text
Duration : 43 min 45 s
Bit rate : 97 b/s
Frame rate : 0.307 FPS
Count of elements : 805
Stream size : 31.1 KiB (0%)
Language : Italian
Default : No
Forced : No

Text #14
ID : 16
Format : UTF-8
Codec ID : S_TEXT/UTF8
Codec ID/Info : UTF-8 Plain Text
Duration : 43 min 8 s
Bit rate : 72 b/s
Frame rate : 0.307 FPS
Count of elements : 796
Stream size : 22.9 KiB (0%)
Language : Japanese
Default : No
Forced : No

Text #15
ID : 17
Format : UTF-8
Codec ID : S_TEXT/UTF8
Codec ID/Info : UTF-8 Plain Text
Duration : 43 min 45 s
Bit rate : 122 b/s
Frame rate : 0.363 FPS
Count of elements : 952
Stream size : 39.4 KiB (0%)
Language : Korean
Default : No
Forced : No

Text #16
ID : 18
Format : UTF-8
Codec ID : S_TEXT/UTF8
Codec ID/Info : UTF-8 Plain Text
Duration : 43 min 45 s
Bit rate : 103 b/s
Frame rate : 0.299 FPS
Count of elements : 784
Stream size : 33.3 KiB (0%)
Language : Dutch
Default : No
Forced : No

Text #17
ID : 19
Format : UTF-8
Codec ID : S_TEXT/UTF8
Codec ID/Info : UTF-8 Plain Text
Duration : 43 min 45 s
Bit rate : 93 b/s
Frame rate : 0.298 FPS
Count of elements : 783
Stream size : 30.0 KiB (0%)
Language : Norwegian
Default : No
Forced : No

Text #18
ID : 20
Format : UTF-8
Codec ID : S_TEXT/UTF8
Codec ID/Info : UTF-8 Plain Text
Duration : 43 min 10 s
Bit rate : 79 b/s
Frame rate : 0.319 FPS
Count of elements : 826
Stream size : 25.1 KiB (0%)
Language : Polish
Default : No
Forced : No

Text #19
ID : 21
Format : UTF-8
Codec ID : S_TEXT/UTF8
Codec ID/Info : UTF-8 Plain Text
Duration : 43 min 7 s
Bit rate : 103 b/s
Frame rate : 0.298 FPS
Count of elements : 772
Stream size : 32.6 KiB (0%)
Title : Brazil
Language : Portuguese
Default : No
Forced : No

Text #20
ID : 22
Format : UTF-8
Codec ID : S_TEXT/UTF8
Codec ID/Info : UTF-8 Plain Text
Duration : 43 min 7 s
Bit rate : 97 b/s
Frame rate : 0.290 FPS
Count of elements : 751
Stream size : 30.8 KiB (0%)
Language : Portuguese
Default : No
Forced : No

Text #21
ID : 23
Format : UTF-8
Codec ID : S_TEXT/UTF8
Codec ID/Info : UTF-8 Plain Text
Duration : 43 min 8 s
Bit rate : 108 b/s
Frame rate : 0.302 FPS
Count of elements : 781
Stream size : 34.3 KiB (0%)
Language : Romanian
Default : No
Forced : No

Text #22
ID : 24
Format : UTF-8
Codec ID : S_TEXT/UTF8
Codec ID/Info : UTF-8 Plain Text
Duration : 43 min 45 s
Bit rate : 101 b/s
Frame rate : 0.310 FPS
Count of elements : 814
Stream size : 32.5 KiB (0%)
Language : Swedish
Default : No
Forced : No

Text #23
ID : 25
Format : UTF-8
Codec ID : S_TEXT/UTF8
Codec ID/Info : UTF-8 Plain Text
Duration : 43 min 41 s
Bit rate : 105 b/s
Frame rate : 0.303 FPS
Count of elements : 795
Stream size : 33.6 KiB (0%)
Language : Turkish
Default : No
Forced : No

Menu
00:06:08.618 : en:Intro
00:06:36.896 : en:Scene 1
00:43:15.342 : en:Credits


点击图片可查看大图

软字幕无法在截图上展现,HDR版本/杜比视界版本截图会出现颜色异常,请使用支持的设备播放!



1 个附件 售价 大小 下载 时间

Bones.S04.1080p.DSNP.WEB-DL.DDP.5.1.H.264-BlackTV[1LOU.ME].torrent 0 金币 163.67K 511 次 2月前

#1楼
发帖时间:2023-12-02 13:16:31   |   回复数:0
游客组