BILL36
超凡入圣№

[2013] [美国] [其它] [WEB-1080P] 福尔摩斯改变世界[第01-2集][中文字幕].How.Sherlock.Changed.the.World.2013.S01.Complete.1080p.WE

-->

完整标题:福尔摩斯改变世界[第01-2集][中文字幕].How.Sherlock.Changed.the.World.2013.S01.Complete.1080p.WEB-DL.AVC.AAC-Xunlei 1.79GB



◎标  题 福尔摩斯改变世界
◎译  名 神探夏洛克改变世界 / 神探夏洛克的启示
◎片  名 How Sherlock Changed the World
◎年  代 2013
◎产  地 美国
◎类  别 纪录片
◎语  言 英语
◎上映日期 2013-11-19
◎IMDb评分 7.4/10 (119人评价)
◎IMDb链接 https://www.imdb.com/title/tt2632340/
◎豆瓣评分 7.5/10 (185人评价)
◎豆瓣链接 https://movie.douban.com/subject/25712745/
◎片  长 120分钟
◎演  员 安德鲁·林肯 Andrew Lincoln

◎简  介
    夏洛克•福尔摩斯毫无疑问是世界上最著名的小说侦探,人们对这位传奇侦探的兴趣从未如此高过。但这个人物背后的灵感是什么呢?他为什么如此流行呢?阿瑟•柯南•道尔爵士以真实的外科医生为原型塑造了福尔摩斯的非常推理和观察力,并加入了他自己的初级法医技术,来创作出这位小说侦探。在需要用目击报告和确凿的证据来宣判罪犯的时代,警察的不称职意味着“开膛手杰克”能逍遥法外,而夏洛克•福尔摩斯的罪案现场方法是革命性的。法医科学家,犯罪历史学家和夏洛克专家,首次揭露了这名小说侦探对于现实的犯罪调查和法医技术的惊人影响。

部分资源为软字幕,移动端推荐播放器:MxPlayer,nPlayer,infuse ,其他播放器请自行尝试。

部分资源为软字幕,电脑端推荐播放器:PotPlayer,完美解码,KMPLAYER,其他播放器请自行尝试。

##### MediaInfo ######
General
Complete name : 福尔摩斯改变世界.How.Sherlock.Changed.the.World.2013.S01E01.1080p.WEB-DL.AVC.AAC-Xunlei.mp4
Duration : 53 min 58 s
Overall bit rate : 2 425 kb/s

Video
ID : 1
Format : AVC
Format/Info : Advanced Video Codec
Format profile : High@L5
Format settings : CABAC / 6 Ref Frames
Format settings, CABAC : Yes
Format settings, Reference frames : 6 frames
Codec ID : avc1
Codec ID/Info : Advanced Video Coding
Duration : 53 min 58 s
Bit rate : 2 227 kb/s
Width : 1 920 pixels
Height : 1 080 pixels
Display aspect ratio : 16:9
Frame rate mode : Constant
Frame rate : 25.000 FPS
Color space : YUV
Chroma subsampling : 4:2:0
Bit depth : 8 bits
Scan type : Progressive
Bits/(Pixel*Frame) : 0.043
Stream size : 860 MiB (92%)
Color range : Limited
Color primaries : BT.709
Transfer characteristics : BT.709
Matrix coefficients : BT.709
Codec configuration box : avcC

Audio
ID : 2
Format : AAC LC
Format/Info : Advanced Audio Codec Low Complexity
Codec ID : mp4a-40-2
Duration : 53 min 58 s
Bit rate mode : Constant
Bit rate : 192 kb/s
Channel(s) : 2 channels
Channel layout : L R
Sampling rate : 48.0 kHz
Frame rate : 46.875 FPS (1024 SPF)
Compression mode : Lossy
Stream size : 74.1 MiB (8%)
Language : English
Default : Yes
Alternate group : 1




1 个附件 售价 大小 下载 时间

How.Sherlock.Changed.the.World.2013.S01.Complete.1080p.WEB-DL.AVC.AAC-Xunle..[1LOU.ME].torrent 0 金币 7.41K 189 次 2月前

#1楼
发帖时间:2023-12-02 13:13:47   |   回复数:0
游客组