lvchao9947
一代宗师

[2024] [欧美] [剧情] [WEB-4K] 特技狂人[无字片源].The.Fall.Guy.2024.2160p.ITunes.WEB-DL.H265.HDR.DDP5.1.Atmos-MOMOWEB 2

-->

完整标题:特技狂人[无字片源].The.Fall.Guy.2024.2160p.ITunes.WEB-DL.H265.HDR.DDP5.1.Atmos-MOMOWEB 22.32GB



◎标  题 特技狂人
◎译  名 特技玩家(台) / 特技猎人 / 坠落的人
◎片  名 The Fall Guy
◎年  代 2024
◎产  地 美国
◎类  别 剧情 / 喜剧 / 动作
◎语  言 英语
◎上映日期 2024-05-17(中国大陆) / 2024-03-12(西南偏南电影节) / 2024-05-03(美国)
◎IMDb评分 7.4/10 (2679人评价)
◎IMDb链接 https://www.imdb.com/title/tt1684562/
◎豆瓣链接 https://movie.douban.com/subject/35268614/
◎片  长 126分钟
◎导  演 大卫·雷奇 David Leitch
◎编  剧 德鲁·皮尔斯 Drew Pearce
      阿什利·米勒 Ashley Miller
      扎克·施坦茨 Zack Stentz
◎演  员 瑞恩·高斯林 Ryan Gosling
      艾米莉·布朗特 Emily Blunt
      亚伦·泰勒-约翰逊 Aaron Taylor-Johnson
      汉娜·沃丁厄姆 Hannah Waddingham
      泰莉莎·帕尔墨 Teresa Palmer
      许玮伦 Stephanie Hsu
      温斯顿·杜克 Winston Duke
      扎拉·迈克尔斯 Zara Michales
      本·奈特 Ben Knight
      马图斯 Matuse
      玛德琳·琼斯 Madeleine Jones
      Charlotte Wood
      Magdalena Alexandra
      戴维·科林斯 David Collins
      亚当·杜恩 Adam Dunn
      Nova Onas
      Daniel Nelson
      贝丝·钱皮恩 Beth Champion
      Tim Franklin
      杰克·多尔蒂 Jack Doherty
      李·迈杰斯 Lee Majors
      罗伯特·麦克法兰 Robert McFarlane
      拉克尔·罗斯 Rakel Rose
      塔什里夫·伊斯拉姆 Tashrif Islam
      内森·贝茨 Nathan Bates
      马丁·科恩 Martin Cohen
      塔利亚·克里尼斯 Tahlia Crinis
      乔纳·埃罗菲耶夫 Jonah Erofeyeff
      沙克里亚·塔里亚瓦特 Shakriya Tarinyawat
      杰森·莫玛 Jason Momoa

◎简  介
    特技演员为爱犯险,翻身做主角。   科尔特·西弗斯(瑞恩·高斯林 Ryan Gosling 饰)是一名特技演员,就跟这个行业的每一个特技演员一样,他常常被炸飞、辗压、破窗而出以及从高处坠落地面,全都是为了娱乐观众。如今,他才刚因为意外受伤几乎被迫无法再从事特技表演,平凡的科 尔特必须找到一名失踪的电影明星汤姆·赖德(亚伦·泰勒-约翰逊 Aaron Taylor-Johnson 饰)、破解一个阴谋论,并且赢回他一生挚爱乔迪(艾米莉·布朗特 Emily Blunt 饰)的芳心,同时还要继续当一名特技演员。分身乏术、焦头烂额的他有可能一帆风顺吗?

点击图片可查看大图

软字幕无法在截图上展现,HDR版本/杜比视界版本截图会出现颜色异常,请使用支持的设备播放!

##### MediaInfo ######
General
Unique ID : 207670472557470415995647890623062484209 (0x9C3BE0CF82811A3A5D705FEAA5FE24F1)
Complete name : The.Fall.Guy.2024.2160p.ITunes.WEB-DL.H265.HDR.DDP5.1.Atmos-MOMOWEB.mkv
Duration : 2 h 6 min
Overall bit rate : 25.3 Mb/s

Video
ID : 1
Format : HEVC
Format/Info : High Efficiency Video Coding
Format profile : Main 10@L5@High
HDR format : SMPTE ST 2094 App 4, Version 1, HDR10+ Profile B compatible
Codec ID : V_MPEGH/ISO/HEVC
Duration : 2 h 6 min
Bit rate : 24.5 Mb/s
Width : 3 836 pixels
Height : 1 600 pixels
Display aspect ratio : 2.40:1
Original display aspect ratio : 2.40:1
Frame rate mode : Constant
Frame rate : 23.976 FPS
Color space : YUV
Chroma subsampling : 4:2:0 (Type 2)
Bit depth : 10 bits
Bits/(Pixel*Frame) : 0.167
Stream size : 21.6 GiB (97%)
Language : English
Default : Yes
Forced : No
Color range : Limited
Color primaries : BT.2020
Transfer characteristics : PQ
Matrix coefficients : BT.2020 non-constant
Mastering display color primaries : Display P3
Mastering display luminance : min: 0.0050 cd/m2, max: 4000 cd/m2
Maximum Content Light Level : 1053 cd/m2
Maximum Frame-Average Light Level : 473 cd/m2

Audio
ID : 2
Format : E-AC-3 JOC
Format/Info : Enhanced AC-3 with Joint Object Coding
Commercial name : Dolby Digital Plus with Dolby Atmos
Codec ID : A_EAC3
Duration : 2 h 6 min
Bit rate mode : Constant
Bit rate : 768 kb/s
Channel(s) : 6 channels
Channel layout : L R C LFE Ls Rs
Sampling rate : 48.0 kHz
Frame rate : 31.250 FPS (1536 SPF)
Compression mode : Lossy
Stream size : 694 MiB (3%)
Language : English
Service kind : Complete Main
Default : Yes
Forced : No
Complexity index : 16
Number of dynamic objects : 15
Bed channel count : 1 channel
Bed channel configuration : LFE

Text #1
ID : 3
Format : UTF-8
Codec ID : S_TEXT/UTF8
Codec ID/Info : UTF-8 Plain Text
Duration : 2 h 3 min
Bit rate : 1 b/s
Frame rate : 0.005 FPS
Count of elements : 37
Stream size : 1.01 KiB (0%)
Title : forced
Language : Spanish
Default : Yes
Forced : No

Text #2
ID : 4
Format : UTF-8
Codec ID : S_TEXT/UTF8
Codec ID/Info : UTF-8 Plain Text
Duration : 2 h 6 min
Bit rate : 80 b/s
Frame rate : 0.276 FPS
Count of elements : 2088
Stream size : 74.6 KiB (0%)
Language : Spanish
Default : Yes
Forced : No

Text #3
ID : 5
Format : UTF-8
Codec ID : S_TEXT/UTF8
Codec ID/Info : UTF-8 Plain Text
Duration : 2 h 5 min
Bit rate : 2 b/s
Frame rate : 0.008 FPS
Count of elements : 59
Stream size : 2.05 KiB (0%)
Title : forced
Language : French
Default : Yes
Forced : No

Text #4
ID : 6
Format : UTF-8
Codec ID : S_TEXT/UTF8
Codec ID/Info : UTF-8 Plain Text
Duration : 2 h 6 min
Bit rate : 62 b/s
Frame rate : 0.270 FPS
Count of elements : 2045
Stream size : 57.5 KiB (0%)
Language : French
Default : Yes
Forced : No


部分资源为软字幕,移动端推荐播放器:MxPlayer,nPlayer,infuse ,其他播放器请自行尝试。

部分资源为软字幕,电脑端推荐播放器:PotPlayer,完美解码,KMPLAYER,其他播放器请自行尝试。

下载端推荐纯BT下载软件:qBittorrent,Bitcomet,uTorrent ,其他下载软件请自行尝试。不支持吸血迅雷。



1 个附件 售价 大小 下载 时间

The.Fall.Guy.2024.2160p.ITunes.WEB-DL.H265.HDR.DDP5.1.Atmos-MOMOWEB[1LOU.ME].torrent 0 金币 58.45K 5243 次 1月前

#1楼
发帖时间:2024-05-21 19:26:08   |   回复数:2
liyouchai
隐世仙人♂
谢谢楼主分享资源
1月前 #2楼
feung18
武林盟主
感謝樓主辛苦 !
1月前 #3楼
游客组