squallzhao
一代宗师

[2021] [英国] [喜剧] [BD-1080P] 海盗们 Pirates.2021.1080p.BluRay.x264-SCARE 6.53GB

-->

帖子完整标题:海盗们 Pirates.2021.1080p.BluRay.x264-SCARE 6.53GB



◎译  名 海盗们
◎片  名 Pirates
◎年  代 2021
◎产  地 英国
◎类  别 喜剧
◎语  言 英语
◎上映日期 2021-11-26(英国)
◎IMDb链接 https://www.imdb.com/title/tt11918288/
◎豆瓣链接 https://movie.douban.com/subject/35632715/
◎导  演 雷吉·耶茨 Reggie Yates (id:1163182)
◎编  剧 雷吉·耶茨 Reggie Yates (id:1163182)
◎演  员 艾略特·埃杜萨 Elliot Edusah (id:1445581)
      卡西厄斯·纳尔逊 Kassius Nelson (id:1437772)
      优素福·凯尔科尔 Youssef Kerkour (id:1170098)
      托辛·科尔 Tosin Cole (id:1380707)

◎简  介
  PIRATES 'The worlds shortest road movie', follows three eighteen-year-old friends on their journey from North to south London on New Year's Eve 1999.

Video
ID : 1
Format : AVC
Format/Info : Advanced Video Codec
Format profile : [email protected]
Format settings : CABAC / 4 Ref Frames
Format settings, CABAC : Yes
Format settings, Reference frames : 4 frames
Codec ID : V_MPEG4/ISO/AVC
Duration : 1 h 19 min
Bit rate : 10.2 Mb/s
Width : 1 920 pixels
Height : 960 pixels
Display aspect ratio : 2.000
Frame rate mode : Constant
Frame rate : 24.000 FPS
Color space : YUV
Chroma subsampling : 4:2:0
Bit depth : 8 bits
Scan type : Progressive
Bits/(Pixel*Frame) : 0.231
Stream size : 5.68 GiB (87%)
Writing library : x264 core 164 r3094 bfc87b7
Encoding settings : cabac=1 / ref=4 / deblock=1:-3:-3 / analyse=0x3:0x133 / me=umh / subme=10 / psy=1 / psy_rd=1.20:0.00 / mixed_ref=1 / me_range=24 / chroma_me=1 / trellis=2 / 8x8dct=1 / cqm=0 / deadzone=21,11 / fast_pskip=0 / chroma_qp_offset=-2 / threads=24 / lookahead_threads=4 / sliced_threads=0 / nr=0 / decimate=0 / interlaced=0 / bluray_compat=0 / constrained_intra=0 / bframes=8 / b_pyramid=2 / b_adapt=2 / b_bias=0 / direct=3 / weightb=1 / open_gop=0 / weightp=2 / keyint=250 / keyint_min=24 / scenecut=40 / intra_refresh=0 / rc_lookahead=60 / rc=crf / mbtree=1 / crf=17.0 / qcomp=0.60 / qpmin=0 / qpmax=69 / qpstep=4 / ip_ratio=1.40 / aq=3:0.90
Default : Yes
Forced : No
Color range : Limited
Matrix coefficients : BT.709

Audio
ID : 2
Format : DTS XLL
Format/Info : Digital Theater Systems
Commercial name : DTS-HD Master Audio
Codec ID : A_DTS
Duration : 1 h 19 min
Bit rate mode : Variable
Bit rate : 1 509 kb/s
Channel(s) : 6 channels
Channel layout : C L R Ls Rs LFE
Sampling rate : 48.0 kHz
Frame rate : 93.750 FPS (512 SPF)
Bit depth : 16 bits
Compression mode : Lossless
Stream size : 859 MiB (13%)
Language : English
Default : Yes
Forced : No

Text
ID : 3
Format : PGS
Muxing mode : zlib
Codec ID : S_HDMV/PGS
Codec ID/Info : Picture based subtitle format used on BDs/HD-DVDs
Duration : 1 h 19 min
Bit rate : 43.0 kb/s
Count of elements : 2660
Stream size : 24.4 MiB (0%)
Title : SDH
Language : English
Default : No
Forced : No

Menu
00:00:00.000 : Chapter 01
00:08:22.833 : Chapter 02
00:19:01.375 : Chapter 03
00:28:33.958 : Chapter 04
00:39:34.833 : Chapter 05
00:48:03.500 : Chapter 06
00:58:17.250 : Chapter 07
01:08:01.083 : Chapter 08
01:19:41.125 : Chapter 09





1 个附件 售价 大小 下载 时间

Pirates.2021.1080p.BluRay.x264-SCARE.torrent 0 金币 17.05K 301 次 11天前

#1楼
发帖时间:2022-05-14 17:06:21   |   回复数:0
游客组