squallzhao
一代宗师

[更 早] [美国] [喜剧] [BD-1080P] 我的小山雀 My.Little.Chickadee.1940.1080p.BluRay.x264-ORBS 5.69GB

-->

帖子完整标题:我的小山雀 My.Little.Chickadee.1940.1080p.BluRay.x264-ORBS 5.69GB



◎译  名 我的小山雀
◎片  名 My Little Chickadee
◎年  代 1940
◎产  地 美国
◎类  别 喜剧 / 西部
◎语  言 英语
◎上映日期 1948-09-01
◎IMDb链接 https://www.imdb.com/title/tt0032828/
◎豆瓣链接 https://movie.douban.com/subject/1305890/
◎片  长 83 分钟
◎导  演 爱德华·克莱因 Edward F. Cline (id:1042159)
◎编  剧 梅·韦斯特 Mae West (id:1022806)
      W.C.菲尔兹 W.C. Fields (id:1004909)
◎演  员 梅·韦斯特 Mae West (id:1022806)
      约翰·凯利 John Kelly (id:1109102)
      詹姆斯·C·莫顿 James C. Morton (id:1126457)
      Charles McMurphy Charles McMurphy (id:1120443)
      唐纳德·米克 Donald Meek (id:1119672)
      沃尔特·麦克格莱尔 Walter McGrail (id:1119170)
      Chester Gan Chester Gan (id:1101796)
      Robert McKenzie Robert McKenzie (id:1115753)
      Otto Hoffman Otto Hoffman (id:1102313)
      Si Jenks Si Jenks (id:1108146)
      George Moran George Moran (id:1130852)
      Vester Pegg Vester Pegg (id:1129428)
      Bill Wolfe Bill Wolfe (id:1168382)
      Morgan Wallace Morgan Wallace (id:1167535)
      Blackie Whiteford Blackie Whiteford (id:1166765)
      Dorothy Vernon Dorothy Vernon (id:1157139)
      Jack Roper Jack Roper (id:1148595)
      威拉德·罗伯逊 Willard Robertson (id:1146389)
      Bob Reeves Bob Reeves (id:1146072)
      艾迪生·理查兹 Addison Richards (id:1145856)
      杰基·瑟尔 Jackie Searl (id:1145451)
      Betty Roche Betty Roche (id:1141192)
      安妮·内格尔 Anne Nagel (id:1132968)
      Charles Hart Charles Hart (id:1100685)
      Buddy Harris Buddy Harris (id:1100553)
      Slim Gaut Slim Gaut (id:1097182)
      William 'Billy' Benedict William 'Billy' Benedict (id:1065697)
      Hank Bell Hank Bell (id:1063632)
      Georgie Billings Georgie Billings (id:1063464)
      韦德·博特勒 Wade Boteler (id:1061597)
      Gene Austin Gene Austin (id:1058347)
      莱恩·钱德勒 Lane Chandler (id:1054263)
      乔治·梅尔福德 George Melford (id:1054230)
      福兹·奈特 Fuzzy Knight (id:1048398)
      玛格丽特·哈米尔顿 Margaret Hamilton (id:1036588)
      劳埃德·英格拉哈姆 Lloyd Ingraham (id:1036337)
      约瑟夫·卡利亚 Joseph Calleia (id:1023053)
      Eddie Butler Eddie Butler (id:1073072)
      Harlan Briggs Harlan Briggs (id:1074480)
      Lita Chevret Lita Chevret (id:1077589)
      Ben Hall Ben Hall (id:1096329)
      Edward Hearn Edward Hearn (id:1095163)
      Jan Duggan Jan Duggan (id:1090750)
      威廉·B·戴维森 William B. Davidson (id:1089719)
      弗兰克·埃利斯 Frank Ellis (id:1087643)
      露丝·唐纳利 Ruth Donnelly (id:1087005)
      Al Ferguson Al Ferguson (id:1085560)
      迪克·福伦 Dick Foran (id:1079295)
      Bing Conley Bing Conley (id:1078875)
      Jimmy Conlin Jimmy Conlin (id:1078781)
      Bob Burns Bob Burns (id:1078337)
      阿尔·布里奇 Al Bridge (id:1077963)
      W.C.菲尔兹 W.C. Fields (id:1004909)
      Lester Cowan Lester Cowan (id:1000450)
      Jack J. Gross Jack J. Gross (id:1025918)
      弗兰克·斯金纳 Frank Skinner (id:1157480)
      约瑟夫·A·瓦伦汀 Joseph A. Valentine (id:1023956)
      爱德华·柯蒂斯 Edward Curtiss (id:1013000)
      罗素·A·盖斯曼 Russell A. Gausman (id:1093495)
      马丁·奥布季纳 Martin Obzina (id:1026006)
      杰克·奥特森 Jack Otterson (id:1054379)
      维拉·韦斯特 Vera West (id:1010530)
      雷·泰勒 Ray Taylor (id:1038010)
      约瑟夫·A·麦克多纳 Joseph A. McDonough (id:1116149)
      约翰·P·富尔顿 John P. Fulton (id:1083513)
      James V. King James V. King (id:1111245)

Video
ID : 1
Format : AVC
Format/Info : Advanced Video Codec
Format profile : [email protected]
Format settings : CABAC / 5 Ref Frames
Format settings, CABAC : Yes
Format settings, Reference frames : 5 frames
Codec ID : V_MPEG4/ISO/AVC
Duration : 1 h 23 min
Bit rate : 9 157 kb/s
Width : 1 458 pixels
Height : 1 080 pixels
Display aspect ratio : 4:3
Frame rate mode : Constant
Frame rate : 23.976 (24000/1001/189150) FPS
Color space : YUV
Chroma subsampling : 4:2:0
Bit depth : 8 bits
Scan type : Progressive
Bits/(Pixel*Frame) : 0.243
Stream size : 5.37 GiB (94%)
Writing library : x264 core 164 r3094 bfc87b7
Encoding settings : cabac=1 / ref=5 / deblock=1:-3:-3 / analyse=0x3:0x133 / me=umh / subme=10 / psy=1 / psy_rd=1.20:0.00 / mixed_ref=1 / me_range=24 / chroma_me=1 / trellis=2 / 8x8dct=1 / cqm=0 / deadzone=21,11 / fast_pskip=0 / chroma_qp_offset=-2 / threads=24 / lookahead_threads=4 / sliced_threads=0 / nr=0 / decimate=0 / interlaced=0 / bluray_compat=0 / constrained_intra=0 / bframes=8 / b_pyramid=2 / b_adapt=2 / b_bias=0 / direct=3 / weightb=1 / open_gop=0 / weightp=2 / keyint=250 / keyint_min=23 / scenecut=40 / intra_refresh=0 / rc_lookahead=60 / rc=crf / mbtree=1 / crf=21.0 / qcomp=0.60 / qpmin=0 / qpmax=69 / qpstep=4 / ip_ratio=1.40 / aq=3:0.90
Default : Yes
Forced : No
Color range : Limited
Matrix coefficients : BT.709

Audio
ID : 2
Format : FLAC
Format/Info : Free Lossless Audio Codec
Codec ID : A_FLAC
Duration : 1 h 23 min
Bit rate mode : Variable
Bit rate : 529 kb/s
Channel(s) : 1 channel
Channel layout : C
Sampling rate : 48.0 kHz
Frame rate : 11.719 FPS (4096 SPF)
Bit depth : 24 bits
Compression mode : Lossless
Stream size : 318 MiB (5%)
Writing library : libFLAC 1.3.3 (UTC 2019-08-04)
Language : English
Default : Yes
Forced : No

Text
ID : 3
Format : PGS
Muxing mode : zlib
Codec ID : S_HDMV/PGS
Codec ID/Info : Picture based subtitle format used on BDs/HD-DVDs
Duration : 1 h 21 min
Bit rate : 53.5 kb/s
Count of elements : 2598
Stream size : 31.1 MiB (1%)
Title : SDH
Language : English
Default : No
Forced : No

Menu
00:00:00.000 : Chapter 01
00:08:02.649 : Chapter 02
00:16:56.682 : Chapter 03
00:24:52.950 : Chapter 04
00:34:56.261 : Chapter 05
00:42:08.943 : Chapter 06
00:51:38.262 : Chapter 07
00:57:33.408 : Chapter 08
01:07:10.401 : Chapter 09
01:14:28.089 : Chapter 10
01:23:57.115 : Chapter 11





1 个附件 售价 大小 下载 时间

My.Little.Chickadee.1940.1080p.BluRay.x264-ORBS.torrent 0 金币 14.97K 252 次 11天前

#1楼
发帖时间:2022-05-14 17:04:05   |   回复数:0
游客组