squallzhao
一代宗师

[更 早] [美国] [剧情] [BD-720P] 一代尤物 Mae.West.1982.720p.BluRay.x264-ORBS 3.42GB

-->

帖子完整标题:一代尤物 Mae.West.1982.720p.BluRay.x264-ORBS 3.42GB



◎译  名 一代尤物
◎片  名 Mae West
◎年  代 1982
◎产  地 美国
◎类  别 剧情 / 传记
◎语  言 英语
◎上映日期 1982
◎IMDb链接 https://www.imdb.com/title/tt0084289/
◎豆瓣链接 https://movie.douban.com/subject/5050306/
◎片  长 95分钟
◎导  演 李·飞利浦 Lee Philips (id:1016790)
◎演  员 安·吉莉安 Ann Jillian (id:1107788)
      詹姆斯·布洛林 James Brolin (id:1010577)
      派珀·劳瑞 Piper Laurie (id:1007044)
      罗迪·麦克道尔 Roddy McDowall (id:1049620)
      伊安·沃尔夫 Ian Wolfe (id:1161909)
      Debbie Lytton Debbie Lytton (id:1115687)
      Bill Morey Bill Morey (id:1130444)
      William G. Schilling William G. Schilling (id:1141926)
      弗雷德·斯图斯曼 Fred Stuthman (id:1152847)
      William Sumper William Sumper (id:1156952)
      丽塔·塔格特 Rita Taggart (id:1159128)
      雷德蒙德·格里森 Redmond Gleeson (id:1455445)
      保罗·威尔森 Paul Willson (id:1162966)
      Than Wyenn Than Wyenn (id:1164412)
      阿莱克·斯迈特 Alec Smight (id:1297824)
      米克·罗杰斯 Mic Rodgers (id:1295865)
      Albert Lantieri Albert Lantieri (id:1106312)
      Donald Hotton Donald Hotton (id:1099147)
      尼古拉斯·迈耶 Nicholas Meyer (id:1014215)
      Steve Conte Steve Conte (id:1014810)
      Dan Hamilton Dan Hamilton (id:1037607)
      哈利·雷恩斯 Harry Reems (id:1050027)
      查克·麦卡恩 Chuck McCann (id:1050113)
      布里奇特·安徒生 Bridgette Andersen (id:1056756)
      Martin Azarow Martin Azarow (id:1060066)
      博克伯恩斯 Burke Byrnes (id:1067798)
      迈克尔·柯里 Michael Currie (id:1069186)
      Woody Eney Woody Eney (id:1081241)
      John Dennis John Dennis (id:1086435)
      Fred Franklyn Fred Franklyn (id:1089372)
      李·德布鲁 Lee de Broux (id:1090135)
      路易斯·基亚姆布拉沃 Louis Giambalvo (id:1096201)
      Philip Mandelker Philip Mandelker (id:1046464)
      Leonard Hill Leonard Hill (id:1286629)
      布拉德·费德尔 Brad Fiedel (id:1032622)
      马修·莱昂涅蒂 Matthew F. Leonetti (id:1025467)
      George Jay Nicholson George Jay Nicholson (id:1052772)
      林恩·斯塔马斯特 Lynn Stalmaster (id:1276256)
      Kim Swados Kim Swados (id:1044341)
      让-皮埃尔·多尔利克 Jean-Pierre Dorléac (id:1282616)
      Richard Blair Richard Blair (id:1278734)

Video
ID : 1
Format : AVC
Format/Info : Advanced Video Codec
Format profile : [email protected]
Format settings : CABAC / 9 Ref Frames
Format settings, CABAC : Yes
Format settings, Reference frames : 9 frames
Codec ID : V_MPEG4/ISO/AVC
Duration : 1 h 35 min
Bit rate : 4 287 kb/s
Width : 1 280 pixels
Height : 720 pixels
Display aspect ratio : 16:9
Frame rate mode : Constant
Frame rate : 23.976 (24000/1001/189150) FPS
Color space : YUV
Chroma subsampling : 4:2:0
Bit depth : 8 bits
Scan type : Progressive
Bits/(Pixel*Frame) : 0.194
Stream size : 2.86 GiB (84%)
Writing library : x264 core 164 r3094 bfc87b7
Encoding settings : cabac=1 / ref=9 / deblock=1:-3:-3 / analyse=0x3:0x133 / me=umh / subme=10 / psy=1 / psy_rd=1.20:0.00 / mixed_ref=1 / me_range=24 / chroma_me=1 / trellis=2 / 8x8dct=1 / cqm=0 / deadzone=21,11 / fast_pskip=0 / chroma_qp_offset=-2 / threads=22 / lookahead_threads=3 / sliced_threads=0 / nr=0 / decimate=0 / interlaced=0 / bluray_compat=0 / constrained_intra=0 / bframes=8 / b_pyramid=2 / b_adapt=2 / b_bias=0 / direct=3 / weightb=1 / open_gop=0 / weightp=2 / keyint=250 / keyint_min=23 / scenecut=40 / intra_refresh=0 / rc_lookahead=60 / rc=crf / mbtree=1 / crf=19.0 / qcomp=0.60 / qpmin=0 / qpmax=69 / qpstep=4 / ip_ratio=1.40 / aq=3:0.90
Default : Yes
Forced : No
Color range : Limited
Matrix coefficients : BT.709

Audio
ID : 2
Format : FLAC
Format/Info : Free Lossless Audio Codec
Codec ID : A_FLAC
Duration : 1 h 35 min
Bit rate mode : Variable
Bit rate : 804 kb/s
Channel(s) : 2 channels
Channel layout : L R
Sampling rate : 48.0 kHz
Frame rate : 11.719 FPS (4096 SPF)
Bit depth : 24 bits
Compression mode : Lossless
Stream size : 549 MiB (16%)
Writing library : libFLAC 1.3.3 (UTC 2019-08-04)
Language : English
Default : Yes
Forced : No

Text
ID : 3
Format : PGS
Muxing mode : zlib
Codec ID : S_HDMV/PGS
Codec ID/Info : Picture based subtitle format used on BDs/HD-DVDs
Duration : 1 h 34 min
Bit rate : 48.5 kb/s
Count of elements : 3132
Stream size : 32.9 MiB (1%)
Title : SDH
Language : English
Default : No
Forced : No

Menu
00:00:00.000 : Chapter 01
00:09:25.899 : Chapter 02
00:15:28.803 : Chapter 03
00:22:50.578 : Chapter 04
00:27:06.750 : Chapter 05
00:35:44.309 : Chapter 06
00:41:24.107 : Chapter 07
00:51:26.125 : Chapter 08
00:59:30.275 : Chapter 09
01:09:24.952 : Chapter 10
01:17:29.478 : Chapter 11
01:25:12.149 : Chapter 12
01:35:32.018 : Chapter 13





1 个附件 售价 大小 下载 时间

Mae.West.1982.720p.BluRay.x264-ORBS.torrent 0 金币 17.78K 560 次 11天前

#1楼
发帖时间:2022-05-14 17:03:12   |   回复数:0
游客组