squallzhao
一代宗师

[2022] [美国] [恐怖] [BD-1080P] 恶魔录音棚 Studio.666.2022.1080p.BluRay.x264.DTS-HD.MA.7.1-MT 15.30GB

-->

帖子完整标题:恶魔录音棚 Studio.666.2022.1080p.BluRay.x264.DTS-HD.MA.7.1-MT 15.30GB



◎译  名 恶魔录音棚
◎片  名 Studio 666
◎年  代 2022
◎产  地 美国
◎类  别 恐怖
◎语  言 英语
◎上映日期 2022-02-25(美国)
◎IMDb链接 https://www.imdb.com/title/tt15374070/
◎豆瓣评分 5.4/10 (397人评价)
◎豆瓣链接 https://movie.douban.com/subject/35657056/
◎片  长 106分钟
◎导  演 比利·约翰·麦克唐纳 BJ McDonnell (id:1198882)
◎编  剧 杰夫·布勒 Jeff Buhler (id:1397704)
      丽贝卡·休斯 Rebecca Hughes (id:1468659)
      戴夫·格罗 David Grohl (id:1014068)
◎演  员 戴夫·格罗 David Grohl (id:1014068)
      泰勒·霍金斯 Taylor Hawkins (id:1197677)
      内特·孟德尔 Nate Mendel (id:1115499)
      帕特·斯密尔 Pat Smear (id:1152108)
      克里斯·夏夫利特 Chris Shiflett (id:1046351)
      拉米·杰菲 Rami Jaffee (id:1468660)
      惠特妮·卡明 Whitney Cummings (id:1193270)
      莱斯利·格罗斯曼 Leslie Grossman (id:1094270)
      珍娜·奥尔特加 Jenna Ortega (id:1437862)
      杰夫·格尔林 Jeff Garlin (id:1018022)
      威尔·福特 Will Forte (id:1019039)
      凯瑞·金 Kerry King (id:1212518)
      马蒂·马图利斯 Marti Matulis (id:1229486)
      杰森·特罗斯特 Jason Trost (id:1426153)

◎简  介
  老牌摇滚乐队Foo Fighters进驻位于洛杉矶恩西诺的一间有着浓郁摇滚历史的豪宅,录制自己的第十张专辑,然而在录制过程中,主唱Dave Grohl发现豪宅中有一股超自然力量正在威胁专辑乃至整支乐队的命运。

Video
ID : 1
Format : AVC
Format/Info : Advanced Video Codec
Format profile : [email protected]
Format settings : CABAC / 5 Ref Frames
Format settings, CABAC : Yes
Format settings, Reference frames : 5 frames
Codec ID : V_MPEG4/ISO/AVC
Duration : 1 h 46 min
Bit rate : 15.8 Mb/s
Width : 1 920 pixels
Height : 804 pixels
Display aspect ratio : 2.40:1
Frame rate mode : Constant
Frame rate : 23.976 (24000/1001/189150) FPS
Color space : YUV
Chroma subsampling : 4:2:0
Bit depth : 8 bits
Scan type : Progressive
Bits/(Pixel*Frame) : 0.428
Stream size : 11.8 GiB (77%)
Writing library : x264 core 157 r2938 2b00a84 [email protected] Mod
Encoding settings : cabac=1 / ref=5 / deblock=1:-3:-3 / analyse=0x3:0x133 / me=umh / subme=10 / psy=1 / psy_rd=1.05:0.00 / mixed_ref=1 / me_range=32 / chroma_me=1 / trellis=2 / 8x8dct=1 / cqm=0 / deadzone=21,11 / fast_pskip=0 / chroma_qp_offset=-2 / threads=12 / lookahead_threads=2 / sliced_threads=0 / nr=0 / decimate=0 / interlaced=0 / bluray_compat=0 / constrained_intra=0 / bframes=8 / b_pyramid=2 / b_adapt=2 / b_bias=0 / direct=3 / weightb=1 / open_gop=0 / weightp=2 / keyint=250 / keyint_min=24 / scenecut=40 / intra_refresh=0 / rc_lookahead=250 / rc=crf / mbtree=0 / crf=16.8 / qcomp=0.60 / qpmin=0 / qpmax=69 / qpstep=4 / vbv_maxrate=62500 / vbv_bufsize=78125 / crf_max=0.0 / nal_hrd=none / filler=0 / ip_ratio=1.30 / pb_ratio=1.20 / aq=3:0.80
Language : English
Default : Yes
Forced : No
Color range : Limited
Color primaries : BT.709
Matrix coefficients : BT.709

Audio
ID : 2
Format : DTS XLL
Format/Info : Digital Theater Systems
Commercial name : DTS-HD Master Audio
Codec ID : A_DTS
Duration : 1 h 46 min
Bit rate mode : Variable
Bit rate : 4 722 kb/s
Channel(s) : 8 channels
Channel layout : C L R LFE Lb Rb Lss Rss
Sampling rate : 48.0 kHz
Frame rate : 93.750 FPS (512 SPF)
Bit depth : 24 bits
Compression mode : Lossless
Stream size : 3.51 GiB (23%)
Language : English
Default : Yes
Forced : No

Text #1
ID : 3
Format : UTF-8
Codec ID : S_TEXT/UTF8
Codec ID/Info : UTF-8 Plain Text
Duration : 1 h 44 min
Bit rate : 47 b/s
Count of elements : 1225
Stream size : 36.0 KiB (0%)
Language : English
Default : Yes
Forced : No

Text #2
ID : 4
Format : UTF-8
Codec ID : S_TEXT/UTF8
Codec ID/Info : UTF-8 Plain Text
Duration : 1 h 45 min
Bit rate : 53 b/s
Count of elements : 1516
Stream size : 41.3 KiB (0%)
Title : SDH
Language : English
Default : No
Forced : No

Text #3
ID : 5
Format : PGS
Muxing mode : zlib
Codec ID : S_HDMV/PGS
Codec ID/Info : Picture based subtitle format used on BDs/HD-DVDs
Duration : 1 h 45 min
Bit rate : 37.9 kb/s
Count of elements : 3052
Stream size : 28.7 MiB (0%)
Language : English
Default : No
Forced : No

Menu
00:00:00.000 : en:Chapter 01
00:04:18.967 : en:Chapter 02
00:11:19.554 : en:Chapter 03
00:15:08.199 : en:Chapter 04
00:20:53.169 : en:Chapter 05
00:25:52.176 : en:Chapter 06
00:29:55.335 : en:Chapter 07
00:36:41.449 : en:Chapter 08
00:40:53.868 : en:Chapter 09
00:45:43.991 : en:Chapter 10
00:50:13.093 : en:Chapter 11
00:56:05.821 : en:Chapter 12
01:01:18.341 : en:Chapter 13
01:06:26.691 : en:Chapter 14
01:12:17.750 : en:Chapter 15
01:17:52.918 : en:Chapter 16
01:21:44.316 : en:Chapter 17
01:27:38.962 : en:Chapter 18
01:33:37.737 : en:Chapter 19
01:41:36.465 : en:Chapter 20





1 个附件 售价 大小 下载 时间

Studio.666.2022.1080p.BluRay.x264.DTS-HD.MA.7.1-MT.torrent 0 金币 19.76K 644 次 11天前

#1楼
发帖时间:2022-05-14 15:16:27   |   回复数:0
游客组