travismk
一代宗师

[更 早] [欧美] [动作] [BD-1080P] 沙丘行星/山寨版沙丘 Planet.Dune.2021.1080p.BluRay.x264-FREEMAN 6.34GB

-->

帖子完整标题:沙丘行星/山寨版沙丘 Planet.Dune.2021.1080p.BluRay.x264-FREEMAN 6.34GB



◎译  名 沙丘行星/山寨版沙丘
◎片  名 Planet Dune
◎年  代 2021
◎产  地 美国
◎类  别 动作 / 科幻 / 冒险
◎语  言 英语
◎上映日期 2021-09-24(美国)
◎豆瓣评分 /10 from 0 users
◎豆瓣链接 https://movie.douban.com/subject/35603765/
◎导  演 Glenn Campbell Glenn Campbell
◎主  演 肖恩·杨 Sean Young
      克拉克·穆尔 Clark Moore

◎标  签 科幻 | 山寨版 | 美国 | 五毛特效 | 2021 | 美剧&美国电影 | 圣母智商 | 肖恩·杨

◎简  介

  一个在沙漠星球上执行营救被困基地任务的船员发现自己被这个星球的顶级掠食者——巨型沙虫——追捕和攻击时,变得致命。

Video
ID : 1
Format : AVC
Format/Info : Advanced Video Codec
Format profile : [email protected]
Format settings : CABAC / 5 Ref Frames
Format settings, CABAC : Yes
Format settings, Reference frames : 5 frames
Codec ID : V_MPEG4/ISO/AVC
Duration : 1 h 26 min
Bit rate : 6 860 kb/s
Width : 1 920 pixels
Height : 804 pixels
Display aspect ratio : 2.40:1
Frame rate mode : Constant
Frame rate : 23.976 (24000/1001/189150) FPS
Color space : YUV
Chroma subsampling : 4:2:0
Bit depth : 8 bits
Scan type : Progressive
Bits/(Pixel*Frame) : 0.185
Stream size : 4.17 GiB (66%)
Writing library : x264 core 164 r3075 66a5bc1
Encoding settings : cabac=1 / ref=5 / deblock=1:-3:-3 / analyse=0x3:0x133 / me=umh / subme=9 / psy=1 / psy_rd=1.00:0.00 / mixed_ref=1 / me_range=16 / chroma_me=1 / trellis=2 / 8x8dct=1 / cqm=0 / deadzone=21,11 / fast_pskip=0 / chroma_qp_offset=-2 / threads=24 / lookahead_threads=2 / sliced_threads=0 / nr=0 / decimate=1 / interlaced=0 / bluray_compat=0 / constrained_intra=0 / bframes=3 / b_pyramid=2 / b_adapt=2 / b_bias=0 / direct=3 / weightb=1 / open_gop=0 / weightp=2 / keyint=250 / keyint_min=23 / scenecut=40 / intra_refresh=0 / rc_lookahead=60 / rc=crf / mbtree=1 / crf=17.0 / qcomp=0.60 / qpmin=0 / qpmax=69 / qpstep=4 / ip_ratio=1.40 / aq=3:1.00
Default : Yes
Forced : No
Color range : Limited
Matrix coefficients : BT.709

Audio
ID : 2
Format : DTS XLL
Format/Info : Digital Theater Systems
Commercial name : DTS-HD Master Audio
Codec ID : A_DTS
Duration : 1 h 26 min
Bit rate mode : Variable
Bit rate : 3 576 kb/s
Channel(s) : 6 channels
Channel layout : C L R Ls Rs LFE
Sampling rate : 48.0 kHz
Frame rate : 93.750 FPS (512 SPF)
Bit depth : 24 bits
Compression mode : Lossless
Stream size : 2.17 GiB (34%)
Language : English
Default : Yes
Forced : No

Text
ID : 3
Format : PGS
Muxing mode : zlib
Codec ID : S_HDMV/PGS
Codec ID/Info : Picture based subtitle format used on BDs/HD-DVDs
Duration : 1 h 16 min
Bit rate : 553 b/s
Count of elements : 32
Stream size : 308 KiB (0%)
Language : German
Default : No
Forced : No

Menu
00:00:00.000 : en:00:00:00.000
00:09:21.436 : en:00:09:21.436
00:18:01.330 : en:00:18:01.330
00:29:52.833 : en:00:29:52.833
00:39:55.310 : en:00:39:55.310
00:49:41.478 : en:00:49:41.478
01:01:30.937 : en:01:01:30.937
01:12:14.205 : en:01:12:14.205
01:23:44.853 : en:01:23:44.853





1 个附件 售价 大小 下载 时间

Planet.Dune.2021.1080p.BluRay.x264-FREEMAN.torrent 0 金币 16.55K 714 次 1月前

#1楼
发帖时间:2021-11-29 19:58:56   |   回复数:2
ulix
武林高手
thanks
1月前 #2楼
popeye69
一派掌门
谢谢楼主分享。
1月前 #3楼
游客组