travismk
一代宗师

[2007] [欧美] [喜剧] [WEB-1080P] 戴着手铐去度假 Holiday.In.Handcuffs.2007.1080p.DSNP.WEBRip.DDP5.1.x264-WELP 5.48GB

-->

帖子完整标题:戴着手铐去度假 Holiday.In.Handcuffs.2007.1080p.DSNP.WEBRip.DDP5.1.x264-WELP 5.48GB



◎译  名 戴着手铐去度假
◎片  名 Holiday in Handcuffs
◎年  代 2007
◎产  地 美国
◎类  别 喜剧 / 家庭 / 犯罪
◎语  言 英语
◎上映日期 2007-12-09
◎豆瓣评分 /10 from 0 users
◎豆瓣链接 https://movie.douban.com/subject/3259955/
◎片  长 86分钟
◎导  演 罗恩·安德伍德 Ron Underwood
◎主  演 格里克·温斯顿 Gerrick Winston
      琼·洛克哈特 June Lockhart
      马里奥·洛佩兹 Mario López
      凡妮莎·李·艾维甘 Vanessa Lee Evigan
      玛基·珀斯特 Markie Post
      蒂姆斯·伯特姆斯 Timothy Bottoms
      凯尔·霍华德 Kyle Howard
      格雷格·劳森 Greg Lawson
      加布里埃尔·米勒 Gabrielle Miller
      Marty Hanenberg Marty Hanenberg
      本杰明·艾瑞斯 Benjamin Ayres
      梅利莎·琼·哈特 Melissa Joan Hart

◎标  签 美国 | 电影 | M美国 | D罗恩·安德伍德 | ABC

◎简  介

  A struggling artist working as waitress kidnaps one of her customers to bring home and meet her parents at Christmas.

Video
ID : 1
Format : AVC
Format/Info : Advanced Video Codec
Format profile : [email protected]
Format settings : CABAC / 4 Ref Frames
Format settings, CABAC : Yes
Format settings, Reference frames : 4 frames
Codec ID : V_MPEG4/ISO/AVC
Duration : 1 h 29 min
Bit rate mode : Variable
Bit rate : 8 491 kb/s
Maximum bit rate : 12.7 Mb/s
Width : 1 920 pixels
Height : 1 080 pixels
Display aspect ratio : 16:9
Frame rate mode : Constant
Frame rate : 23.976 (24000/1001/189150) FPS
Color space : YUV
Chroma subsampling : 4:2:0
Bit depth : 8 bits
Scan type : Progressive
Bits/(Pixel*Frame) : 0.171
Stream size : 5.32 GiB (97%)
Default : Yes
Forced : No
Color range : Limited
Color primaries : BT.709
Transfer characteristics : BT.709
Matrix coefficients : BT.709

Audio
ID : 2
Format : E-AC-3
Format/Info : Enhanced AC-3
Commercial name : Dolby Digital Plus
Codec ID : A_EAC3
Duration : 1 h 29 min
Bit rate mode : Constant
Bit rate : 256 kb/s
Channel(s) : 6 channels
Channel layout : L R C LFE Ls Rs
Sampling rate : 48.0 kHz
Frame rate : 31.250 FPS (1536 SPF)
Compression mode : Lossy
Stream size : 164 MiB (3%)
Language : English
Service kind : Complete Main
Default : Yes
Forced : No

Text #1
ID : 3
Format : UTF-8
Codec ID : S_TEXT/UTF8
Codec ID/Info : UTF-8 Plain Text
Duration : 1 h 28 min
Bit rate : 76 b/s
Count of elements : 1801
Stream size : 49.5 KiB (0%)
Language : English
Default : No
Forced : No

Text #2
ID : 4
Format : UTF-8
Codec ID : S_TEXT/UTF8
Codec ID/Info : UTF-8 Plain Text
Duration : 1 h 28 min
Bit rate : 79 b/s
Count of elements : 1906
Stream size : 52.0 KiB (0%)
Title : SDH
Language : English
Default : No
Forced : No

Text #3
ID : 5
Format : UTF-8
Codec ID : S_TEXT/UTF8
Codec ID/Info : UTF-8 Plain Text
Duration : 1 h 29 min
Bit rate : 61 b/s
Count of elements : 1503
Stream size : 40.0 KiB (0%)
Language : Danish
Default : No
Forced : No

Text #4
ID : 6
Format : UTF-8
Codec ID : S_TEXT/UTF8
Codec ID/Info : UTF-8 Plain Text
Duration : 1 h 29 min
Bit rate : 56 b/s
Count of elements : 1503
Stream size : 37.2 KiB (0%)
Language : Spanish
Default : No
Forced : No

Text #5
ID : 7
Format : UTF-8
Codec ID : S_TEXT/UTF8
Codec ID/Info : UTF-8 Plain Text
Duration : 1 h 29 min
Bit rate : 57 b/s
Count of elements : 1494
Stream size : 37.5 KiB (0%)
Language : Finnish
Default : No
Forced : No

Text #6
ID : 8
Format : UTF-8
Codec ID : S_TEXT/UTF8
Codec ID/Info : UTF-8 Plain Text
Duration : 1 h 28 min
Bit rate : 57 b/s
Count of elements : 999
Stream size : 37.2 KiB (0%)
Language : Dutch
Default : No
Forced : No

Text #7
ID : 9
Format : UTF-8
Codec ID : S_TEXT/UTF8
Codec ID/Info : UTF-8 Plain Text
Duration : 1 h 29 min
Bit rate : 59 b/s
Count of elements : 1502
Stream size : 39.0 KiB (0%)
Language : Norwegian
Default : No
Forced : No

Text #8
ID : 10
Format : UTF-8
Codec ID : S_TEXT/UTF8
Codec ID/Info : UTF-8 Plain Text
Duration : 1 h 29 min
Bit rate : 65 b/s
Count of elements : 1083
Stream size : 42.9 KiB (0%)
Language : Portuguese
Default : No
Forced : No

Text #9
ID : 11
Format : UTF-8
Codec ID : S_TEXT/UTF8
Codec ID/Info : UTF-8 Plain Text
Duration : 1 h 29 min
Bit rate : 57 b/s
Count of elements : 1490
Stream size : 37.4 KiB (0%)
Language : Swedish
Default : No
Forced : No





1 个附件 售价 大小 下载 时间

Holiday.In.Handcuffs.2007.1080p.DSNP.WEBRip.DDP5.1.x264-WELP.torrent 0 金币 14.35K 329 次 1月前

#1楼
发帖时间:2021-11-27 13:44:05   |   回复数:1
popeye69
一派掌门
谢谢楼主分享!
1月前 #2楼
游客组