fg603603
一代宗师

[更 早] [欧美] [剧情] [BD-4K] 沙丘/沙丘瀚战 Dune.2021.2160p.WEBRip.x265.10bit.SDR.DDP5.1.Atmos-SWTYBLZ 27.07GB

-->

帖子完整标题:沙丘/沙丘瀚战 Dune.2021.2160p.WEBRip.x265.10bit.SDR.DDP5.1.Atmos-SWTYBLZ 27.07GB



◎译  名 沙丘/沙丘瀚战(港)
◎片  名 Dune
◎年  代 2021
◎产  地 美国
◎类  别 剧情 / 科幻 / 冒险
◎语  言 英语
◎上映日期 2021-09-03(威尼斯电影节) / 2021-09-11(多伦多电影节) / 2021-10-22(美国/中国大陆)
◎豆瓣评分 7.8/10 from 79465 users
◎豆瓣链接 https://movie.douban.com/subject/3001114/
◎片  长 156分钟
◎导  演 丹尼斯·维伦纽瓦 Denis Villeneuve
◎编  剧 丹尼斯·维伦纽瓦 Denis Villeneuve / 乔·斯派茨 Jon Spaihts / 艾瑞克·罗斯 Eric Roth / 弗兰克·赫伯特 Frank Herbert
◎主  演 蒂莫西·柴勒梅德 Timothée Chalamet
      丽贝卡·弗格森 Rebecca Ferguson
      奥斯卡·伊萨克 Oscar Isaac
      戴夫·巴蒂斯塔 Dave Bautista
      赞达亚 Zendaya
      杰森·莫玛 Jason Momoa
      乔什·布洛林 Josh Brolin
      哈维尔·巴登 Javier Bardem
      斯特兰·斯卡斯加德 Stellan Skarsg?rd
      夏洛特·兰普林 Charlotte Rampling
      大卫·达斯马齐连 David Dastmalchian
      莎伦·邓肯-布鲁斯特 Sharon Duncan-Brewster
      斯蒂芬·亨德森 Stephen Henderson
      迈克尔·纳尔多内 Michael Nardone
      张震 Chen Chang
      巴布斯·奥卢桑莫昆 Babs Olusanmokun
      Oliver Ryan Oliver Ryan
      查理·罗尔斯 Charlie Rawes
      格洛里亚·奥比安约 Gloria Obianyo
      保罗·布林 Paul Bullion
      比约恩·弗赖贝格 Bj?rn Freiberg

◎标  签 科幻 | 沙丘 | 美国 | 2021 | 奇幻 | 冒险 | 剧情 | 经典

◎简  介

  电影《沙丘》为观众呈现了一段神秘而感人至深的英雄之旅。天赋异禀的少年保罗·厄崔迪被命运指引,为了保卫自己的家族和人民,决心前往浩瀚宇宙间最危险的星球,开启一场惊心动魄的冒险。与此同时,各路势力为了抢夺这颗星球上一种能够释放人类最大潜力的珍贵资源而纷纷加入战场。最终,唯有那些能够战胜内心恐惧的人才能生存下去。

◎获奖情况

  第7届豆瓣电影年度榜单 ?(2020)
  最值得期待的外语电影(提名)
  
  第6届豆瓣电影年度榜单 ?(2019)
  最值得期待的外语电影(提名)

Video
ID : 1
Format : HEVC
Format/Info : High Efficiency Video Coding
Format profile : Main [email protected]@High
Codec ID : V_MPEGH/ISO/HEVC
Duration : 2 h 35 min
Bit rate : 24.1 Mb/s
Width : 3 840 pixels
Height : 1 606 pixels
Display aspect ratio : 2.40:1
Frame rate mode : Constant
Frame rate : 23.976 (24000/1001/189150) FPS
Color space : YUV
Chroma subsampling : 4:2:0
Bit depth : 10 bits
Bits/(Pixel*Frame) : 0.163
Stream size : 26.2 GiB (97%)
Writing library : x265 3.0ed72af837053:[Windows][GCC 8.2.0][64 bit] 10bit
Encoding settings : cpuid=1111039 / frame-threads=6 / numa-pools=40 / wpp / no-pmode / no-pme / no-psnr / no-ssim / log-level=2 / input-csp=1 / input-res=3840x1606 / interlace=0 / total-frames=223576 / level-idc=51 / high-tier=1 / uhd-bd=0 / ref=3 / no-allow-non-conformance / repeat-headers / annexb / aud / hrd / info / hash=0 / no-temporal-layers / no-open-gop / min-keyint=1 / keyint=24 / gop-lookahead=0 / bframes=4 / b-adapt=2 / b-pyramid / bframe-bias=0 / rc-lookahead=25 / lookahead-slices=4 / scenecut=40 / radl=0 / no-splice / no-intra-refresh / ctu=64 / min-cu-size=8 / no-rect / no-amp / max-tu-size=32 / tu-inter-depth=1 / tu-intra-depth=1 / limit-tu=0 / rdoq-level=0 / dynamic-rd=0.00 / no-ssim-rd / signhide / no-tskip / nr-intra=0 / nr-inter=0 / no-constrained-intra / strong-intra-smoothing / max-merge=2 / limit-refs=3 / no-limit-modes / me=1 / subme=2 / merange=57 / temporal-mvp / weightp / no-weightb / no-analyze-src-pics / deblock=0:0 / no-sao / no-sao-non-deblock / rd=3 / no-early-skip / rskip / no-fast-intra / no-tskip-fast / no-cu-lossless / no-b-intra / no-splitrd-skip / rdpenalty=0 / psy-rd=2.00 / psy-rdoq=0.00 / no-rd-refine / no-lossless / cbqpoffs=0 / crqpoffs=0 / rc=crf / crf=16.0 / qcomp=0.60 / qpstep=4 / stats-write=0 / stats-read=0 / vbv-maxrate=160000 / vbv-bufsize=160000 / vbv-init=0.9 / crf-max=0.0 / crf-min=0.0 / ipratio=1.40 / pbratio=1.30 / aq-mode=1 / aq-strength=1.00 / cutree / zone-count=0 / no-strict-cbr / qg-size=32 / no-rc-grain / qpmax=69 / qpmin=0 / no-const-vbv / sar=1 / overscan=0 / videoformat=5 / range=0 / colorprim=2 / transfer=2 / colormatrix=2 / chromaloc=0 / display-window=0 / max-cll=0,0 / min-luma=0 / max-luma=1023 / log2-max-poc-lsb=8 / vui-timing-info / vui-hrd-info / slices=1 / opt-qp-pps / opt-ref-list-length-pps / no-multi-pass-opt-rps / scenecut-bias=0.05 / no-opt-cu-delta-qp / no-aq-motion / no-hdr / no-hdr-opt / no-dhdr10-opt / no-idr-recovery-sei / analysis-reuse-level=5 / scale-factor=0 / refine-intra=0 / refine-inter=0 / refine-mv=0 / refine-ctu-distortion=0 / no-limit-sao / ctu-info=0 / no-lowpass-dct / refine-analysis-type=0 / copy-pic=1 / max-ausize-factor=1.0 / no-dynamic-refine / no-single-sei / no-hevc-aq / qp-adaptation-range=1.00
Default : Yes
Forced : No

Audio
ID : 2
Format : E-AC-3 JOC
Format/Info : Enhanced AC-3 with Joint Object Coding
Commercial name : Dolby Digital Plus with Dolby Atmos
Codec ID : A_EAC3
Duration : 2 h 35 min
Bit rate mode : Constant
Bit rate : 768 kb/s
Channel(s) : 6 channels
Channel layout : L R C LFE Ls Rs
Sampling rate : 48.0 kHz
Frame rate : 31.250 FPS (1536 SPF)
Compression mode : Lossy
Stream size : 854 MiB (3%)
Title : DDP5.1 Atmos
Language : English
Service kind : Complete Main
Default : Yes
Forced : No
Complexity index : 16
Number of dynamic objects : 15
Bed channel count : 1 channel
Bed channel configuration : LFE

Text #1
ID : 3
Format : UTF-8
Codec ID : S_TEXT/UTF8
Codec ID/Info : UTF-8 Plain Text
Duration : 2 h 25 min
Bit rate : 31 b/s
Count of elements : 1353
Stream size : 34.1 KiB (0%)
Title : English
Language : English
Default : Yes
Forced : No

Text #2
ID : 4
Format : UTF-8
Codec ID : S_TEXT/UTF8
Codec ID/Info : UTF-8 Plain Text
Duration : 2 h 26 min
Bit rate : 41 b/s
Count of elements : 1724
Stream size : 44.4 KiB (0%)
Title : English [SDH]
Language : English
Default : No
Forced : No

Text #3
ID : 5
Format : UTF-8
Codec ID : S_TEXT/UTF8
Codec ID/Info : UTF-8 Plain Text
Duration : 2 h 16 min
Bit rate : 1 b/s
Count of elements : 50
Stream size : 1.42 KiB (0%)
Title : Spanish
Language : Spanish
Default : No
Forced : No

Text #4
ID : 6
Format : UTF-8
Codec ID : S_TEXT/UTF8
Codec ID/Info : UTF-8 Plain Text
Duration : 2 h 16 min
Bit rate : 1 b/s
Count of elements : 50
Stream size : 1.42 KiB (0%)
Title : Spanish [SDH]
Language : Spanish
Default : No
Forced : No





1 个附件 售价 大小 下载 时间

Dune.2021.2160p.WEBRip.x265.10bit.SDR.DDP5.1.Atmos-SWTYBLZ.torrent 0 金币 34.54K 21861 次 1月前

#1楼
发帖时间:2021-10-23 18:17:18   |   回复数:3
vincelwq
无名小卒
多谢楼主
1月前 #2楼
death5man
武林高手
没合适的字幕啊楼主
1月前 #3楼
kola13
武林盟主
感谢分享
1月前 #4楼
游客组