squallzhao
一代宗师

[更 早] [欧美] [剧情] [BD-4K] 哭泣的男人 Cry.Macho.2021.2160p.HMAX.WEB-DL.DD5.1.DV.MP4.x265-FLUX 13.14GB

-->

帖子完整标题:哭泣的男人 Cry.Macho.2021.2160p.HMAX.WEB-DL.DD5.1.DV.MP4.x265-FLUX 13.14GB



◎译  名 哭泣的男人
◎片  名 Cry Macho
◎年  代 2021
◎产  地 美国
◎类  别 剧情 / 惊悚 / 西部
◎语  言 英语
◎上映日期 2021-09-17(美国/美国网络)
◎豆瓣评分 /10 from 0 users
◎豆瓣链接 https://movie.douban.com/subject/10523152/
◎片  长 104分钟
◎导  演 克林特·伊斯特伍德 Clint Eastwood
◎编  剧 N·理查德·纳什 N. Richard Nash / 尼克·申克 Nick Schenk
◎主  演 克林特·伊斯特伍德 Clint Eastwood
      德怀特·尤科姆 Dwight Yoakam
      费兰达·乌雷霍拉 Fernanda Urrejola
      霍拉西欧·加西亚·罗哈斯 Horacio Garcia Rojas
      丹尼尔V·格拉劳 Daniel V. Graulau
      保罗·阿拉约 Paul Alayo
      娜塔莉娅·特拉文 Natalia Traven
      萨罗·索利斯 Saro Solis

◎标  签 克林特·伊斯特伍德 | 东木大爷 | 美国 | ClintEastwood | 剧情 | 2021 | 美国电影 | 惊悚

◎简  介

  影片讲述了一名驯马师为了养老金和自己破产的牧场老板达成协议,从老板富有的墨西哥前妻那里绑架老板11岁的儿子以索要赎金。然而老板的前妻正为这个不良少年头疼,巴不得甩掉这个包袱,事情朝着意料之外的方向发展……

Video
ID : 1
Format : HEVC
Format/Info : High Efficiency Video Coding
Format profile : Main [email protected]@Main
HDR format : Dolby Vision, Version 1.0, dvhe.05.06, BL+RPU
Codec ID : dvhe
Codec ID/Info : High Efficiency Video Coding with Dolby Vision
Duration : 1 h 43 min
Bit rate : 17.7 Mb/s
Width : 3 840 pixels
Height : 2 160 pixels
Display aspect ratio : 16:9
Frame rate mode : Constant
Frame rate : 23.976 (24000/1001/189150) FPS
Color space : YUV
Chroma subsampling : 4:2:0
Bit depth : 10 bits
Bits/(Pixel*Frame) : 0.089
Stream size : 12.9 GiB (98%)
Writing library : x265 3.4hy:[Linux][GCC 7.5.0][64 bit] 10bit
Encoding settings : cpuid=1111039 / frame-threads=6 / no-wpp / no-pmode / no-pme / no-psnr / no-ssim / log-level=2 / input-csp=1 / input-res=3840x2160 / interlace=0 / total-frames=0 / level-idc=0 / high-tier=1 / uhd-bd=0 / ref=4 / no-allow-non-conformance / repeat-headers / annexb / aud / hrd / info / hash=0 / no-temporal-layers / no-open-gop / min-keyint=96 / keyint=96 / gop-lookahead=0 / bframes=4 / b-adapt=2 / b-pyramid / bframe-bias=0 / rc-lookahead=25 / lookahead-slices=4 / scenecut=40 / hist-scenecut=0 / radl=0 / no-splice / no-intra-refresh / ctu=64 / min-cu-size=8 / rect / no-amp / max-tu-size=32 / tu-inter-depth=1 / tu-intra-depth=1 / limit-tu=0 / rdoq-level=2 / dynamic-rd=0.00 / no-ssim-rd / signhide / no-tskip / nr-intra=0 / nr-inter=0 / no-constrained-intra / strong-intra-smoothing / max-merge=3 / limit-refs=3 / limit-modes / me=3 / subme=3 / merange=57 / temporal-mvp / no-frame-dup / no-hme / weightp / no-weightb / no-analyze-src-pics / deblock=0:0 / sao / no-sao-non-deblock / rd=4 / selective-sao=4 / no-early-skip / rskip / no-fast-intra / no-tskip-fast / no-cu-lossless / no-b-intra / no-splitrd-skip / rdpenalty=0 / psy-rd=2.00 / psy-rdoq=1.00 / no-rd-refine / no-lossless / cbqpoffs=0 / crqpoffs=3 / rc=abr / bitrate=18000 / qcomp=0.60 / qpstep=4 / stats-write=0 / stats-read=2 / cplxblur=20.0 / qblur=0.5 / vbv-maxrate=24500 / vbv-bufsize=24500 / vbv-init=0.6 / vbv-end=0.6 / vbv-end-fr-adj=0.0 / ipratio=1.40 / pbratio=1.30 / aq-mode=2 / aq-strength=1.00 / cutree / zone-count=0 / no-strict-cbr / qg-size=32 / no-rc-grain / qpmax=69 / qpmin=0 / no-const-vbv / sar=1 / overscan=0 / videoformat=5 / range=1 / colorprim=2 / transfer=2 / colormatrix=2 / chromaloc=0 / display-window=0 / cll=0,0 / min-luma=0 / max-luma=1023 / log2-max-poc-lsb=8 / vui-timing-info / vui-hrd-info / no-concatenation / slices=1 / no-opt-qp-pps / no-opt-ref-list-length-pps / no-multi-pass-opt-rps / scenecut-bias=0.05 / hist-threshold=0.01 / no-opt-cu-delta-qp / no-aq-motion / no-hdr10 / no-hdr10-opt / no-dhdr10-opt / no-idr-recovery-sei / analysis-reuse-level=0 / analysis-save-reuse-level=0 / analysis-load-reuse-level=0 / scale-factor=0 / refine-intra=0 / refine-inter=0 / refine-mv=1 / refine-ctu-distortion=0 / no-limit-sao / ctu-info=0 / no-lowpass-dct / refine-analysis-type=0 / copy-pic=1 / max-ausize-factor=1.0 / no-dynamic-refine / no-single-sei / no-hevc-aq / no-svt / no-field / qp-adaptation-range=1.00 / no-scenecut-aware-qpconformance-window-offsets / right=0 / bottom=0 / decoder-max-rate=0
Default : Yes
Alternate group : 1
Encoded date : UTC 2021-09-17 07:06:57
Tagged date : UTC 2021-09-17 07:12:52
Color range : Full
Codec configuration box : hvcC+dvcC

Audio
ID : 2
Format : AC-3
Format/Info : Audio Coding 3
Commercial name : Dolby Digital
Codec ID : ac-3
Duration : 1 h 43 min
Bit rate mode : Constant
Bit rate : 384 kb/s
Maximum bit rate : 406 kb/s
Channel(s) : 6 channels
Channel layout : L R C LFE Ls Rs
Sampling rate : 48.0 kHz
Frame rate : 31.250 FPS (1536 SPF)
Compression mode : Lossy
Stream size : 285 MiB (2%)
Title : English
Language : English
Service kind : Complete Main
Encoded date : UTC 2021-09-17 07:05:44
Tagged date : UTC 2021-09-17 07:12:52

Text #1
ID : 3
Format : Timed Text
Codec ID : tx3g
Duration : 1 h 36 min
Bit rate mode : Variable
Bit rate : 50 b/s
Stream size : 35.4 KiB (0%)
Title : SDH
Language : English
Forced : No
Encoded date : UTC 2021-09-17 07:12:51
Tagged date : UTC 2021-09-17 07:12:52

Text #2
ID : 4
Format : Timed Text
Codec ID : tx3g
Duration : 1 h 43 min
Bit rate mode : Variable
Bit rate : 59 b/s
Stream size : 44.4 KiB (0%)
Title : SDH
Language : English
Forced : No
Encoded date : UTC 2021-09-17 07:12:51
Tagged date : UTC 2021-09-17 07:12:52

Text #3
ID : 5
Format : Timed Text
Codec ID : tx3g
Duration : 1 h 43 min
Bit rate mode : Variable
Bit rate : 58 b/s
Stream size : 43.7 KiB (0%)
Title : Espa?ol CC
Language : Spanish
Forced : No
Encoded date : UTC 2021-09-17 07:12:51
Tagged date : UTC 2021-09-17 07:12:52





1 个附件 售价 大小 下载 时间

Cry.Macho.2021.2160p.HMAX.WEB-DL.DD5.1.DV.MP4.x265-FLUX.torrent 0 金币 17.05K 1197 次 1月前

#1楼
发帖时间:2021-09-17 20:30:12   |   回复数:1
liyouchai
隐世仙人♂
谢谢楼主分享资源
1月前 #2楼
游客组