topgood
一派掌门

[更 早] [其他] [喜剧] [WEB-1080P] 毕加索的奇异旅程 The.Adventures.of.Picasso.1978.SWEDISH.1080p.WEBRip.AAC2.0.x264-iFLiX 4

-->

帖子完整标题:毕加索的奇异旅程 The.Adventures.of.Picasso.1978.SWEDISH.1080p.WEBRip.AAC2.0.x264-iFLiX 4.23GB



◎译  名 毕加索的奇异旅程/The Adventures of Picasso/毕加索的奇异旅行
◎片  名 Picassos ?ventyr
◎年  代 1978
◎产  地 瑞典
◎类  别 喜剧
◎语  言 英语,芬兰语,法语,德语,意大利语,俄语,瑞典语,西班牙语,拉丁语
◎上映日期 1978-05-20(瑞典)
◎豆瓣评分 8.7/10 from 5380 users
◎豆瓣链接 https://movie.douban.com/subject/1308686/
◎片  长 115分钟
◎导  演 泰治·丹尼尔森 Tage Danielsson
◎编  剧 汉斯·阿尔弗莱德森 Hans Alfredson / 泰治·丹尼尔森 Tage Danielsson
◎主  演 约斯塔·埃克曼 G?sta Ekman
      汉斯·阿尔弗莱德森 Hans Alfredson
      玛格丽塔·克罗克 Margaretha Krook
      莉娜·奥琳 Lena Olin
      伯纳德·克理宾斯 Bernard Cribbins
      威尔弗里德·布兰贝尔 Wilfrid Brambell
      Lennart Nyman Lennart Nyman
      帕尔·奥斯卡森 Per Oscarsson
      Elisabeth S?derstr?m Elisabeth S?derstr?m
      Birgitta Andersson Birgitta Andersson
      芒努斯·黑伦斯坦 Magnus H?renstam
      Sune Mangs Sune Mangs
      Yngve Gamlin Yngve Gamlin
      Lisbeth Zachrisson Lisbeth Zachrisson
      莱娜·尼曼 Lena Nyman
      Tom Younger Tom Younger
      Rolv Wesenlund Rolv Wesenlund
      斯文·林德贝里 Sven Lindberg
      贡纳尔·奥西安德 Gunnar Ossiander
      昂内塔·普吕茨 Agneta Prytz
      约迪丝·彼得松 Hj?rdis Petterson
      Toivo Pawlo Toivo Pawlo
      Folke Lind Folke Lind
      Olle Ljungberg Olle Ljungberg
      Marga Pettersson Marga Pettersson
      Lasse P?ysti Lasse P?ysti
      G?sta Winbergh G?sta Winbergh
      Birgitta Ulfsson Birgitta Ulfsson
      Ove Sprog?e Ove Sprog?e
      Stellan Sundahl Stellan Sundahl
      Bengt-Olof Landin Bengt-Olof Landin
      Ulf Andrée Ulf Andrée
      Jytte Abildstr?m Jytte Abildstr?m
      派·亚伯 Per Aabel
      Jim Hughes Jim Hughes
      Anders Granstr?m Anders Granstr?m
      Jan Allan Jan Allan
      Lissi Alandh Lissi Alandh
      Jarl Borssén Jarl Borssén
      Moltas Eriksson Moltas Eriksson
      Hatte Furuhagen Hatte Furuhagen
      Karin Ekstr?m Karin Ekstr?m
      雷蒙·比西埃尔 Raymond Bussières
      Bengt Brunskog Bengt Brunskog
      Gregor Dahlman Gregor Dahlman
      托马斯·阿尔弗莱德森 Tomas Alfredson

◎标  签 瑞典 | 喜剧 | 荒诞 | 传记 | 毕加索的奇异旅行 | 艺术 | Picasso | 欧洲电影

◎简  介

  本片用无厘头喜剧的风格演绎了毕加索的故事。
  
  1881年,巴勃罗?路易斯?毕加索(G?sta Ekman 饰)生于西班牙马拉加,他的父亲何塞(Hans Alfredson 饰)热爱绘画,并早早发现了毕加索身上的美术才华。于是年轻的毕加索被送到马德里学习,他优异的画作令父亲兴奋过度上演了一出死而复生的喜剧。1899年,毕加索赴巴黎求学,陷入了长期拮据的生活,直到何塞来到巴黎,施计将立体派作品卖给美国名作家斯坦恩,毕加索以此为契机,进入了当时法国文艺界的视野,他参观了卢梭世外桃源般的花园,与街头的工人打成一片,也被美国的古根海姆夫人长期骚扰,连串光陆怪离的经历后,毕加索卷入了纳粹对欧洲的侵略,战争令他对于人生和艺术产生了新的体会……

Video
ID : 1
Format : AVC
Format/Info : Advanced Video Codec
Format profile : [email protected]
Format settings : CABAC / 4 Ref Frames
Format settings, CABAC : Yes
Format settings, Reference frames : 4 frames
Codec ID : V_MPEG4/ISO/AVC
Duration : 1 h 52 min
Bit rate : 5 255 kb/s
Width : 1 802 pixels
Height : 1 080 pixels
Display aspect ratio : 5:3
Frame rate mode : Constant
Frame rate : 24.000 FPS
Color space : YUV
Chroma subsampling : 4:2:0
Bit depth : 8 bits
Scan type : Progressive
Bits/(Pixel*Frame) : 0.113
Stream size : 4.14 GiB (98%)
Default : Yes
Forced : No
Color range : Limited
Color primaries : BT.709
Transfer characteristics : BT.709
Matrix coefficients : BT.709

Audio
ID : 2
Format : AAC LC
Format/Info : Advanced Audio Codec Low Complexity
Codec ID : A_AAC-2
Duration : 1 h 52 min
Bit rate : 110 kb/s
Channel(s) : 2 channels
Channel layout : L R
Sampling rate : 48.0 kHz
Frame rate : 46.875 FPS (1024 SPF)
Compression mode : Lossy
Stream size : 88.5 MiB (2%)
Language : Swedish
Default : Yes
Forced : No

Text #1
ID : 3
Format : UTF-8
Codec ID : S_TEXT/UTF8
Codec ID/Info : UTF-8 Plain Text
Duration : 1 h 39 min
Bit rate : 4 b/s
Count of elements : 106
Stream size : 2.91 KiB (0%)
Language : Swedish
Default : Yes
Forced : Yes

Text #2
ID : 4
Format : UTF-8
Codec ID : S_TEXT/UTF8
Codec ID/Info : UTF-8 Plain Text
Duration : 1 h 50 min
Bit rate : 23 b/s
Count of elements : 567
Stream size : 19.1 KiB (0%)
Language : Swedish
Default : No
Forced : No

Text #3
ID : 5
Format : UTF-8
Codec ID : S_TEXT/UTF8
Codec ID/Info : UTF-8 Plain Text
Duration : 1 h 51 min
Bit rate : 14 b/s
Count of elements : 315
Stream size : 11.5 KiB (0%)
Language : Norwegian
Default : No
Forced : No

Text #4
ID : 6
Format : UTF-8
Codec ID : S_TEXT/UTF8
Codec ID/Info : UTF-8 Plain Text
Duration : 1 h 51 min
Bit rate : 14 b/s
Count of elements : 315
Stream size : 11.7 KiB (0%)
Language : Danish
Default : No
Forced : No

Text #5
ID : 7
Format : UTF-8
Codec ID : S_TEXT/UTF8
Codec ID/Info : UTF-8 Plain Text
Duration : 1 h 51 min
Bit rate : 14 b/s
Count of elements : 318
Stream size : 11.8 KiB (0%)
Language : Finnish
Default : No
Forced : No

Text #6
ID : 8
Format : UTF-8
Codec ID : S_TEXT/UTF8
Codec ID/Info : UTF-8 Plain Text
Duration : 1 h 48 min
Bit rate : 11 b/s
Count of elements : 241
Stream size : 9.33 KiB (0%)
Language : English
Default : No
Forced : No

Menu
00:00:00.000 : en:1
00:15:00.000 : en:2
00:30:00.000 : en:3
00:45:00.000 : en:4
01:00:00.000 : en:5
01:15:00.000 : en:6
01:30:00.000 : en:7
01:45:00.000 : en:8
01:50:59.000 : en:9





1 个附件 售价 大小 下载 时间

The.Adventures.of.Picasso.1978.SWEDISH.1080p.WEBRip.AAC2.0.x264-iFLiX.torrent 0 金币 21.80K 658 次 2天前

#1楼
发帖时间:2021-09-15 11:14:03   |   回复数:0
游客组