travismk
一代宗师

[2020] [欧美] [WEB-1080P] 另一个女孩 Another.Girl.2021.1080p.AMZN.WEBRip.DDP5.1.x264-NOGRP 2.37GB

-->

帖子完整标题:另一个女孩 Another.Girl.2021.1080p.AMZN.WEBRip.DDP5.1.x264-NOGRP 2.37GB



◎译  名 另一个女孩
◎片  名 Another girl
◎年  代 2020
◎产  地 美国
◎类  别 
◎语  言 英语
◎上映日期 
◎豆瓣评分 /10 from 0 users
◎豆瓣链接 https://movie.douban.com/subject/34926147/
◎导  演 埃利森·博耐特 Allison Burnett
◎编  剧 埃利森·博耐特 Allison Burnett
◎主  演 赛米·汉拉缇 Sammi Hanratty
      彼得·加迪尔特 Peter Gadiot
      杰西卡·理查兹 Jessica Richards
      鲍里斯·李·库尔通格 Boris Lee Krutonog
      亚当·王 Adam Wang
      安德里亚娜·曼弗雷迪 Andriana Manfredi
      Jacob Bond Jacob Bond
       Allyson Floyd

◎简  介

  Elle Overton, a college student, becomes obsessed with Katie Kampenfelt, the mysterious heroine of a novel she's just finished reading. When Elle, battling depression, becomes convinced that Katie is actually a flesh-and-blood human being, it sets her on a reckless and terrifying course. An exploration of the potentially dangerous allure of the Internet, the film picks up where its predecessor, the cult hit Ask Me Anything, left off.

Video
ID : 1
Format : AVC
Format/Info : Advanced Video Codec
Format profile : [email protected]
Format settings : CABAC / 4 Ref Frames
Format settings, CABAC : Yes
Format settings, Reference frames : 4 frames
Codec ID : V_MPEG4/ISO/AVC
Duration : 1 h 35 min
Bit rate : 2 823 kb/s
Width : 1 920 pixels
Height : 1 080 pixels
Display aspect ratio : 16:9
Frame rate mode : Constant
Frame rate : 23.976 (24000/1001/189150) FPS
Color space : YUV
Chroma subsampling : 4:2:0
Bit depth : 8 bits
Scan type : Progressive
Bits/(Pixel*Frame) : 0.057
Stream size : 1.89 GiB (80%)
Default : Yes
Forced : No
Color range : Limited
Color primaries : BT.709
Transfer characteristics : BT.709
Matrix coefficients : BT.709

Audio
ID : 2
Format : E-AC-3
Format/Info : Enhanced AC-3
Commercial name : Dolby Digital Plus
Codec ID : A_EAC3
Duration : 1 h 35 min
Bit rate mode : Constant
Bit rate : 640 kb/s
Channel(s) : 6 channels
Channel layout : L R C LFE Ls Rs
Sampling rate : 48.0 kHz
Frame rate : 31.250 FPS (1536 SPF)
Compression mode : Lossy
Stream size : 439 MiB (18%)
Language : English
Service kind : Complete Main
Default : Yes
Forced : No

Text
ID : 3
Format : UTF-8
Codec ID : S_TEXT/UTF8
Codec ID/Info : UTF-8 Plain Text
Language : English
Default : Yes
Forced : No





1 个附件 售价 大小 下载 时间

Another.Girl.2021.1080p.AMZN.WEBRip.DDP5.1.x264-NOGRP.torrent 0 金币 24.29K 721 次 2天前

#1楼
发帖时间:2021-09-15 10:10:31   |   回复数:0
游客组