q3r3
一代宗师

[更 早] [欧美] [剧情] [BD-1080P] 黑客帝国动画版/骇客帝国动画版 The.Animatrix.2003.1080p.BluRay.x264.DTS-FGT 5.23GB

-->

帖子完整标题:黑客帝国动画版/骇客帝国动画版 The.Animatrix.2003.1080p.BluRay.x264.DTS-FGT 5.23GB



◎译  名 黑客帝国动画版/骇客帝国动画版
◎片  名 The Animatrix
◎年  代 2003
◎产  地 美国
◎类  别 剧情 / 动作 / 科幻 / 动画
◎语  言 英语,日语
◎上映日期 2003-06-03(美国)
◎IMDb评分 7.4/10 from 70848 users
◎IMDb链接 https://www.imdb.com/title/tt0328832/
◎豆瓣评分 8.8/10 from 41683 users
◎豆瓣链接 https://movie.douban.com/subject/1292347/
◎片  长 100分钟
◎导  演 钟彼得 Peter Chung / 川尻善昭 Yoshiaki Kawajiri / 小池健 Takeshi Koike / 前田真宏 Mahiro Maeda / 森本晃司 K?ji Morimoto / 渡边信一郎 Shinichir? Watanabe / 安德鲁·R·琼斯 Andrew R. Jones
◎编  剧 莉莉·沃卓斯基 Lilly Wachowski / 川尻善昭 Yoshiaki Kawajiri / 森本晃司 K?ji Morimoto / 钟彼得 Peter Chung / 拉娜·沃卓斯基 Lana Wachowski
◎主  演 大塚明夫 Akio ?tsuka
      克莱顿·华生 Clayton Watson
      帕梅拉·阿德龙 Pamela Adlon
      海蒂·布雷斯 Hedy Burress
      特伦斯·卡森 Terrence 'T.C.' Carson
      美琳达·克拉克 Melinda Clarke
      奥利薇亚·阿波 Olivia d'Abo
      戴恩·A·戴维斯 Dane A. Davis
      威廉·R·迪恩 William R. Dean
      里克·戈麦斯 Rick Gomez
      基努·里维斯 Keanu Reeves

◎标  签 动画 | 科幻 | Matrix | 美国 | 日本 | 动画片 | 电影 | 黑客帝国

◎简  介

  《黑客帝国动画版》由9段以《黑客帝国》系列电影世界观为基础生发出的短片组成,各篇的角度与风格各异,制作班底汇聚了日本、美国、韩国三地的动画精英。《机器复兴》讲述了MATRIX的历史。机器人不堪人类恶劣对待,终于反抗并将人类化为能源。《少年故事》讲述一名少年突然收到来自网络的召唤,而大批黑衣人开始对他展开围捕。《虚拟程序》展示了一对男女在虚拟训练程序中的片断。《世界纪录》描写一位短跑运动员在接近突破人类极限时终被系统牢牢控制。《超越极限》叙述因为系统错误,平静的街区中出现了一片超常区域。《侦探故事》描写一位侦探被步步引领着试图摆脱系统的桎梏。《矩阵化》讲述一只机器人被人类捕获并驯化的故事。《终极战役》记录了一艘飞船毁灭的经过。

◎获奖情况

  第31届动画安妮奖 ?(2004)
  最佳特殊动画

Video
ID : 1
Format : AVC
Format/Info : Advanced Video Codec
Format profile : [email protected]
Format settings : CABAC / 4 Ref Frames
Format settings, CABAC : Yes
Format settings, Reference frames : 4 frames
Codec ID : V_MPEG4/ISO/AVC
Duration : 1 h 40 min
Bit rate : 5 765 kb/s
Width : 1 920 pixels
Height : 800 pixels
Display aspect ratio : 2.40:1
Frame rate mode : Constant
Frame rate : 23.976 (24000/1001/189150) FPS
Color space : YUV
Chroma subsampling : 4:2:0
Bit depth : 8 bits
Scan type : Progressive
Bits/(Pixel*Frame) : 0.157
Stream size : 4.06 GiB (78%)
Writing library : x264 core 125 r2200 999b753
Encoding settings : cabac=1 / ref=4 / deblock=1:-2:-2 / analyse=0x3:0x113 / me=umh / subme=10 / psy=1 / psy_rd=1.02:0.10 / mixed_ref=1 / me_range=64 / chroma_me=1 / trellis=2 / 8x8dct=1 / cqm=0 / deadzone=21,11 / fast_pskip=0 / chroma_qp_offset=-1 / threads=6 / lookahead_threads=1 / sliced_threads=0 / nr=0 / decimate=0 / interlaced=0 / bluray_compat=0 / constrained_intra=0 / bframes=6 / b_pyramid=2 / b_adapt=2 / b_bias=0 / direct=2 / weightb=1 / open_gop=0 / weightp=2 / keyint=240 / keyint_min=22 / scenecut=40 / intra_refresh=0 / rc_lookahead=60 / rc=crf / mbtree=1 / crf=18.0 / qcomp=0.60 / qpmin=0 / qpmax=51 / qpstep=4 / vbv_maxrate=38000 / vbv_bufsize=30000 / crf_max=0.0 / nal_hrd=none / ip_ratio=1.40 / aq=1:0.50
Language : English
Default : Yes
Forced : No
Color range : Limited
Matrix coefficients : BT.709

Audio
ID : 2
Format : DTS
Format/Info : Digital Theater Systems
Codec ID : A_DTS
Duration : 1 h 40 min
Bit rate mode : Constant
Bit rate : 1 509 kb/s
Channel(s) : 6 channels
Channel layout : C L R Ls Rs LFE
Sampling rate : 48.0 kHz
Frame rate : 93.750 FPS (512 SPF)
Bit depth : 16 bits
Compression mode : Lossy
Stream size : 1.06 GiB (20%)
Language : English
Default : Yes
Forced : No

Menu
00:00:00.000 : en:00:00:00.000
00:09:34.031 : en:00:09:34.031
00:18:48.877 : en:00:18:48.877
00:28:11.981 : en:00:28:11.981
00:37:50.601 : en:00:37:50.601
00:45:06.161 : en:00:45:06.161
00:53:49.976 : en:00:53:49.976
01:06:53.717 : en:01:06:53.717
01:16:44.349 : en:01:16:44.349
01:33:01.701 : en:01:33:01.701





1 个附件 售价 大小 下载 时间

The.Animatrix.2003.1080p.BluRay.x264.DTS-FGT.zip 0 金币 52.93K 2478 次 11月前

#1楼
发帖时间:2020-11-20 10:01:22   |   回复数:4
kola13
武林盟主
感谢分享
11月前 #2楼
chulps
一代宗师
~ 珍惜+支持 ~
2月前 #3楼
chulps
一代宗师
~ 珍惜+支持 ~
2月前 #4楼
ericlys
武林高手
~ 珍惜+支持 ~
1月前 #5楼
游客组