流氓兔214
一代宗师

[2024] [美国] [科幻] [全集] [BT下载][三体.网飞版][全8集][双语][Web-MKV/18.9GB][1080p][美2024新科幻巨制]

-->

海报





译  名 三体 第一季
片  名 3 Body Problem Season 1
年  代 2024
国  家 美国/中国/英国
类  别 科幻/悬疑/奇幻/冒险/剧情
语  言 英语国语双音轨
字  幕 中简/中繁/英文
评  分 6.9/10 from 94,659 users
链  接 https://movie.douban.com/subject/35196946
文件大小 18.9 GB
单集片长 60 Min
集  数 8
导  演 曾国祥 Derek Tsang
     安德鲁·斯坦顿 Andrew Stanton
     明基·斯皮罗 Minkie Spiro
     杰雷米·波德斯瓦 Jeremy Podeswa
主  演 杰茜·洪 Jess Hong
     王汉斌 Benedict Wong
     约翰·艾德坡 Jovan Adepo
     艾莎·冈萨雷斯 Eiza Gonzalez
     艾利克斯·夏普 Alex Sharp
     曾靖 Zine Tseng
     赵家玲 Rosalind Chao
     利亚姆·坎宁安 Liam Cunningham
     约翰·布莱德利 John Bradley
     乔纳森·普雷斯 Jonathan Pryce
     本·施耐泽 Ben Schnetzer
     玛洛·凯丽 Marlo Kelly

简介

  改编自刘慈欣所著长篇科幻小说《三体》。1960年代的中国,一名年轻女性的关键决定掀起跨越时空的波澜,影响了一群身处现代的杰出科学家。自然法则在他们眼前逐渐支离破碎,五位曾经共事的科学家必须再度合作,化解人类史上最重大的威胁。

Video
Format                         : AVC
Format/Info                    : Advanced Video Codec
Format profile                 : Main@L4
Format settings                : CABAC / 3 Ref Frames
Format settings, CABAC         : Yes
Format settings, Reference fra : 3 frames
Codec ID                       : V_MPEG4/ISO/AVC
Duration                       : 1 h 0 min
Bit rate mode                  : Variable
Bit rate                       : 4 701 kb/s
Nominal bit rate               : 5 000 kb/s
Maximum bit rate               : 7 500 kb/s
Width                          : 1 920 pixels
Height                         : 1 080 pixels
Display aspect ratio           : 16:9
Frame rate mode                : Constant
Frame rate                     : 23.976 (24000/1001) FPS
Color space                    : YUV
Chroma subsampling             : 4:2:0
Bit depth                      : 8 bits
Scan type                      : Progressive
Bits/(Pixel*Frame)             : 0.095
Stream size                    : 1.99 GiB (77%)

Audio #1
Format                         : E-AC-3 JOC
Format/Info                    : Enhanced AC-3 with Joint Object Coding
Commercial name                : Dolby Digital Plus with Dolby Atmos
Codec ID                       : A_EAC3
Duration                       : 1 h 0 min
Bit rate mode                  : Constant
Bit rate                       : 768 kb/s
Channel(s)                     : 6 channels
Channel layout                 : L R C LFE Ls Rs
Sampling rate                  : 48.0 kHz
Frame rate                     : 31.250 FPS (1536 SPF)
Compression mode               : Lossy
Stream size                    : 333 MiB (13%)
Language                       : English
Service kind                   : Complete Main

Audio #2
Format                         : E-AC-3
Format/Info                    : Enhanced AC-3
Commercial name                : Dolby Digital Plus
Codec ID                       : A_EAC3
Duration                       : 1 h 0 min
Bit rate mode                  : Constant
Bit rate                       : 640 kb/s
Channel(s)                     : 6 channels
Channel layout                 : L R C LFE Ls Rs
Sampling rate                  : 48.0 kHz
Frame rate                     : 31.250 FPS (1536 SPF)
Compression mode               : Lossy
Stream size                    : 277 MiB (10%)
Language                       : Chinese
Service kind                   : Complete Main


截图



1 个附件 售价 大小 下载 时间

三体.网飞版.全8集.torrent 0 金币 96.62K 6532 次 9天前

#1楼
发帖时间:2024-05-14 22:55:31   |   回复数:1
流氓兔214
一代宗师
标记
7天前 #2楼
游客组