BILL36
隐世仙人♂

[2024] [大陆] [剧情] [WEB-4K] 不可告人[60帧率版本][第12集][国语配音/中文字幕].Tell.No.One.S01.2024.2160p.WEB-DL.H265.HDR.60fps.D

-->

完整标题:不可告人[60帧率版本][第12集][国语配音/中文字幕].Tell.No.One.S01.2024.2160p.WEB-DL.H265.HDR.60fps.DDP5.1-BlackTV 2.04GB



◎标  题 不可告人
◎译  名 Tell No One
◎年  代 2024
◎产  地 中国大陆
◎类  别 剧情 / 悬疑 / 犯罪
◎语  言 汉语普通话
◎IMDb链接 https://www.imdb.com/title/tt29363564/
◎豆瓣链接 https://movie.douban.com/subject/36152563/
◎导  演 刘新 Xin Liu
◎演  员 欧豪 Oho Ou
      李一桐 Yitong Li
      杨玏 Le Yang
      张国强 Guoqiang Zhang
      胡连馨 Lianxin Hu
      赵阳 Yang Zhao
      刘奕君 Yijun Liu
      王同辉 Tonghui Wang
      陈楚翰 Chuhan Chen
      齐奎 Kui Qi
      郑家彬 Jiabin Zheng
      谭泉 Quan Tan
      姚侃 Kan Yao
      罗彬 Robin Luo
      尹智玄 Zhixuan Yin
      姜毅 Yi Jiang
      鞠可儿 Keer Ju

◎简  介
    一触即发的黑白较量,暗流涌动的正邪对决!在复杂人性极限拉扯的背后究竟隐藏着什么?

部分资源为软字幕,移动端推荐播放器:MxPlayer,nPlayer,infuse ,其他播放器请自行尝试。

部分资源为软字幕,电脑端推荐播放器:PotPlayer,完美解码,KMPLAYER,其他播放器请自行尝试。

下载端推荐纯BT下载软件:qBittorrent,Bitcomet,uTorrent ,其他下载软件请自行尝试。不支持吸血迅雷。

##### MediaInfo ######
General
Unique ID : 73756314925184363220286275842778067829 (0x377CF315B8EC04E5CE0F259BC35FF375)
Complete name : Tell.No.One.S01E12.2024.2160p.WEB-DL.H265.HDR.60fps.DDP5.1-BlackTV.mkv
Duration : 46 min 7 s
Overall bit rate : 6 339 kb/s

Video
ID : 1
Format : HEVC
Format/Info : High Efficiency Video Coding
Format profile : Main [email protected]@Main
HDR format : SMPTE ST 2086, HDR10 compatible
Codec ID : V_MPEGH/ISO/HEVC
Duration : 46 min 6 s
Bit rate : 5 886 kb/s
Width : 3 840 pixels
Height : 1 608 pixels
Display aspect ratio : 2.40:1
Frame rate mode : Constant
Frame rate : 60.000 FPS
Color space : YUV
Chroma subsampling : 4:2:0
Bit depth : 10 bits
Bits/(Pixel*Frame) : 0.016
Stream size : 1.90 GiB (93%)
Language : Chinese
Default : Yes
Forced : No
Color range : Limited
Color primaries : BT.2020
Transfer characteristics : PQ
Matrix coefficients : BT.2020 non-constant
Mastering display color primaries : R: x=0.708000 y=0.292000, G: x=0.170000 y=0.797000, B: x=0.130000 y=0.046000, White point: x=0.312700 y=0.329000
Mastering display luminance : min: 0.0001 cd/m2, max: 1000 cd/m2
Maximum Content Light Level : 702 cd/m2
Maximum Frame-Average Light Level : 66 cd/m2

Audio #1
ID : 2
Format : E-AC-3
Format/Info : Enhanced AC-3
Commercial name : Dolby Digital Plus
Codec ID : A_EAC3
Duration : 46 min 7 s
Bit rate mode : Constant
Bit rate : 256 kb/s
Channel(s) : 6 channels
Channel layout : L R C LFE Ls Rs
Sampling rate : 48.0 kHz
Frame rate : 31.250 FPS (1536 SPF)
Compression mode : Lossy
Stream size : 84.4 MiB (4%)
Title : Mandarin [DDP5.1]
Language : Chinese
Service kind : Complete Main
Default : Yes
Forced : No

Audio #2
ID : 3
Format : AAC LC
Format/Info : Advanced Audio Codec Low Complexity
Codec ID : A_AAC-2
Duration : 46 min 7 s
Bit rate : 192 kb/s
Channel(s) : 2 channels
Channel layout : L R
Sampling rate : 44.1 kHz
Frame rate : 43.066 FPS (1024 SPF)
Compression mode : Lossy
Stream size : 63.3 MiB (3%)
Title : Mandarin [AAC2.0]
Language : Chinese
Default : No
Forced : No

Menu
00:12:07.000 : zh:陈家栋被警察怀疑是杀人犯
00:25:41.000 : zh:陈家栋亲自杀死郑英
00:37:21.000 : zh:高阳带郑英去医院看望病危的妻子


点击图片可查看大图

软字幕无法在截图上展现,HDR版本/杜比视界版本截图会出现颜色异常,请使用支持的设备播放!



1 个附件 售价 大小 下载 时间

Tell.No.One.S01.2024.2160p.WEB-DL.H265.HDR.60fps.DDP5.1-BlackTV[1LOU.ME].torrent 0 金币 7.63K 420 次 8天前

#1楼
发帖时间:2024-05-16 07:27:49   |   回复数:0
游客组