BILL36
隐世仙人♂

[2024] [大陆] [动画] [WEB-1080P] 虚无边境[第07集][国语配音/中文字幕].Shadows.of.the.Void.S01.2024.1080p.WEB-DL.H264.AAC-ZeroTV

-->

完整标题:虚无边境[第07集][国语配音/中文字幕].Shadows.of.the.Void.S01.2024.1080p.WEB-DL.H264.AAC-ZeroTV 0.47GB



◎标  题 虚无边境
◎年  代 2024
◎产  地 中国大陆
◎类  别 动画
◎语  言 汉语普通话
◎IMDb链接 https://www.imdb.com/title//
◎豆瓣链接 https://movie.douban.com/subject/36141045/
◎演  员 山新 Shuang Wang
      周一菡 Yihan Zhou
      皇贞季 Zhen Wang
      李佳怡 Jiayi Li
      苗壮 Zhuang Miao
      周健
      关云月
      张惠霖 Huilin Zhang
      赵双 Shuang Zhao
      胡霖 Lin Hu

◎简  介
    虚无,世界最大的灾难。人类只能联合同盟对抗来自虚无的怪物“祝福者”。大陆边境沙洲成为了抵御入侵的重要防线,却有一个名为“祝福之影“的黑暗势力欲寻找被尘封的力量。同盟领袖国度黑岛派出精锐尖兵白狼御伽,意欲摧毁闹事的黑暗势力,却因为一名虚无出来的神秘少女珊瑚的乱入,沙洲变得风起云涌。命运的红线,交织着众人的信念,准备揭开在虚无中隐藏的历史真相。少女与少女超越信念的宿命对决,浪漫奇谭正式展开。

部分资源为软字幕,移动端推荐播放器:MxPlayer,nPlayer,infuse ,其他播放器请自行尝试。

部分资源为软字幕,电脑端推荐播放器:PotPlayer,完美解码,KMPLAYER,其他播放器请自行尝试。

下载端推荐纯BT下载软件:qBittorrent,Bitcomet,uTorrent ,其他下载软件请自行尝试。不支持吸血迅雷。

##### MediaInfo ######
General
Complete name : 虚无边境.Shadows.of.the.Void.S01E07.2024.1080p.WEB-DL.H264.AAC-ZeroTV.mp4
Duration : 22 min 7 s
Overall bit rate : 3 049 kb/s

Video
ID : 1
Format : AVC
Format/Info : Advanced Video Codec
Format profile : High@L5
Format settings : CABAC / 6 Ref Frames
Format settings, CABAC : Yes
Format settings, Reference frames : 6 frames
Codec ID : avc1
Codec ID/Info : Advanced Video Coding
Duration : 22 min 7 s
Bit rate : 2 858 kb/s
Width : 1 920 pixels
Height : 900 pixels
Display aspect ratio : 2.133
Frame rate mode : Variable
Frame rate : 24.000 FPS
Minimum frame rate : 23.810 FPS
Maximum frame rate : 24.390 FPS
Color space : YUV
Chroma subsampling : 4:2:0
Bit depth : 8 bits
Scan type : Progressive
Bits/(Pixel*Frame) : 0.069
Stream size : 452 MiB (94%)
Color range : Limited
Color primaries : BT.709
Transfer characteristics : BT.709
Matrix coefficients : BT.709
Codec configuration box : avcC

Audio
ID : 2
Format : AAC LC
Format/Info : Advanced Audio Codec Low Complexity
Codec ID : mp4a-40-2
Duration : 22 min 7 s
Bit rate mode : Constant
Bit rate : 185 kb/s
Channel(s) : 2 channels
Channel layout : L R
Sampling rate : 48.0 kHz
Frame rate : 46.875 FPS (1024 SPF)
Compression mode : Lossy
Stream size : 29.3 MiB (6%)
Language : Chinese
Default : Yes
Alternate group : 1




1 个附件 售价 大小 下载 时间

Shadows.of.the.Void.S01.2024.1080p.WEB-DL.H264.AAC-ZeroTV[1LOU.ME].torrent 0 金币 3.70K 189 次 8天前

#1楼
发帖时间:2024-05-16 00:56:02   |   回复数:0
游客组