BILL36
隐世仙人♂

[2024] [大陆] [剧情] [WEB-4K] 生活在别处的我[第16集][国语配音/中文字幕].What.If.S01.2024.2160p.WEB-DL.H265.AAC-LelveTV 0.75GB

-->

完整标题:生活在别处的我[第16集][国语配音/中文字幕].What.If.S01.2024.2160p.WEB-DL.H265.AAC-LelveTV 0.75GB



◎标  题 生活在别处的我
◎译  名 茶蘼
◎年  代 2024
◎产  地 中国大陆
◎类  别 剧情
◎语  言 汉语普通话
◎IMDb链接 https://www.imdb.com/title/tt27122945/
◎豆瓣链接 https://movie.douban.com/subject/35809660/
◎导  演 韩青 Qing Han
◎编  剧 邹佳妮 Jiani Zou
◎演  员 钟楚曦 Elane Zhong
      刘学义 Xueyi Liu
      林雨申 Shen Lin
      姚弛 Zeawo
      刘萌萌 Mengmeng Liu
      刘丹 Dan Liu
      李依晓 Xiaoyi Li
      钟祺 Qi Zhong
      傅淼 Miao Fu
      黄灿灿 Cancan Huang
      于慧 Hui Yu
      霍青 Qing Huo
      白梓轩 Thomas Price
      朱研 Yan Zhu
      曲哲明 Zheming Qu
      魏子昕 Zixin Wei
      卜祉亦 Zhiyi Bo
      王子涵 Ada Wong

◎简  介
    生活在乐山的女孩夏果(钟楚曦 饰),和男友郁见(刘学义 饰)过着稳定且安逸的生活,却偶然得到了去往上海工作的机会。一边是机遇与挑战并存的都市生活,一边是一眼能望到头的平凡人生,她会如何做出选择?

部分资源为软字幕,移动端推荐播放器:MxPlayer,nPlayer,infuse ,其他播放器请自行尝试。

部分资源为软字幕,电脑端推荐播放器:PotPlayer,完美解码,KMPLAYER,其他播放器请自行尝试。

下载端推荐纯BT下载软件:qBittorrent,Bitcomet,uTorrent ,其他下载软件请自行尝试。不支持吸血迅雷。

##### MediaInfo ######
General
Complete name : What.If.S01E16.2024.2160p.WEB-DL.H265.AAC-LelveTV.mp4
Duration : 53 min 15 s
Overall bit rate mode : Variable
Overall bit rate : 2 009 kb/s

Video
ID : 1
Format : HEVC
Format/Info : High Efficiency Video Coding
Format profile : Main@L5@Main
Codec ID : hev1
Codec ID/Info : High Efficiency Video Coding
Duration : 53 min 15 s
Source duration : 53 min 15 s
Bit rate : 1 877 kb/s
Width : 3 840 pixels
Height : 2 160 pixels
Display aspect ratio : 16:9
Frame rate mode : Variable
Frame rate : 25.000 FPS
Minimum frame rate : 24.993 FPS
Maximum frame rate : 25.007 FPS
Color space : YUV
Chroma subsampling : 4:2:0
Bit depth : 8 bits
Bits/(Pixel*Frame) : 0.009
Stream size : 715 MiB (93%)
Source stream size : 715 MiB (93%)
Writing library : Tencent-V265-1.6.9.1-p1k184g16lh64f4ra1.
Color range : Limited
Color primaries : BT.709
Transfer characteristics : BT.709
Matrix coefficients : BT.709
Codec configuration box : hvcC

Audio
ID : 2
Format : AAC LC
Format/Info : Advanced Audio Codec Low Complexity
Codec ID : mp4a-40-2
Duration : 53 min 15 s
Bit rate mode : Variable
Bit rate : 125 kb/s
Maximum bit rate : 129 kb/s
Channel(s) : 2 channels
Channel layout : L R
Sampling rate : 48.0 kHz
Frame rate : 46.875 FPS (1024 SPF)
Compression mode : Lossy
Stream size : 47.8 MiB (6%)
Default : Yes
Alternate group : 1




1 个附件 售价 大小 下载 时间

What.If.S01.2024.2160p.WEB-DL.H265.AAC-LelveTV[1LOU.ME].torrent 0 金币 4.36K 105 次 8天前

#1楼
发帖时间:2024-05-16 00:49:22   |   回复数:0
游客组