BILL36
隐世仙人♂

[2023] [大陆] [喜剧] [WEB-1080P] 欢喜一家人[第08集][国语配音/中文字幕].Huan.Xi.Yi.Jia.Ren.S06.2023.1080p.WEB-DL.H264.AAC-LelveTV

-->

完整标题:欢喜一家人[第08集][国语配音/中文字幕].Huan.Xi.Yi.Jia.Ren.S06.2023.1080p.WEB-DL.H264.AAC-LelveTV 0.22GB



◎标  题 欢喜一家人
◎年  代 2023
◎产  地 中国大陆
◎类  别 喜剧
◎语  言 汉语普通话
◎IMDb链接 https://www.imdb.com/title//
◎豆瓣链接 https://movie.douban.com/subject/36691579/
◎演  员 张晓谦 Xiaoqian Zhang
      刘烨 Lidia Liu
      王可 Ke Wang
      龚锐 Rui Gong
      周卫星 Weixing Zhou

◎简  介
    第一季以家庭生活为创作背景,用单元剧的形式、轻喜剧的手法,精准聚焦家庭主题,第一季包含了“爆炒生活”、“加油宝贝”、“我家有喜”三个系列,每系列12集,共36集。   故事发生在南方某城市的普通家庭,创业失败的小夫妻何向南、胡小妮带着两个孩子住进了岳父岳母家,并由此引发了一系列爆笑生活故事。

部分资源为软字幕,移动端推荐播放器:MxPlayer,nPlayer,infuse ,其他播放器请自行尝试。

部分资源为软字幕,电脑端推荐播放器:PotPlayer,完美解码,KMPLAYER,其他播放器请自行尝试。

下载端推荐纯BT下载软件:qBittorrent,Bitcomet,uTorrent ,其他下载软件请自行尝试。不支持吸血迅雷。

##### MediaInfo ######
General
Complete name : Huan.Xi.Yi.Jia.Ren.S06E08.2023.1080p.WEB-DL.H264.AAC-LelveTV.mp4
Duration : 15 min 37 s
Overall bit rate mode : Variable
Overall bit rate : 1 998 kb/s

Video
ID : 1
Format : AVC
Format/Info : Advanced Video Codec
Format profile : High@L4
Format settings : CABAC / 4 Ref Frames
Format settings, CABAC : Yes
Format settings, Reference frames : 4 frames
Codec ID : avc1
Codec ID/Info : Advanced Video Coding
Duration : 15 min 37 s
Bit rate : 1 801 kb/s
Width : 1 920 pixels
Height : 1 080 pixels
Display aspect ratio : 16:9
Frame rate mode : Constant
Frame rate : 25.000 FPS
Color space : YUV
Chroma subsampling : 4:2:0
Bit depth : 8 bits
Scan type : Progressive
Bits/(Pixel*Frame) : 0.035
Stream size : 201 MiB (90%)
Writing library : 211111.mgtv.com
Color range : Limited
Color primaries : BT.709
Transfer characteristics : BT.709
Matrix coefficients : BT.709
Codec configuration box : avcC

Audio
ID : 2
Format : AAC LC
Format/Info : Advanced Audio Codec Low Complexity
Codec ID : mp4a-40-2
Duration : 15 min 37 s
Bit rate mode : Variable
Bit rate : 192 kb/s
Channel(s) : 2 channels
Channel layout : L R
Sampling rate : 44.1 kHz
Frame rate : 43.066 FPS (1024 SPF)
Compression mode : Lossy
Stream size : 21.2 MiB (9%)
Default : Yes
Alternate group : 1




1 个附件 售价 大小 下载 时间

Huan.Xi.Yi.Jia.Ren.S06.2023.1080p.WEB-DL.H264.AAC-LelveTV[1LOU.ME].torrent 0 金币 3.07K 63 次 8天前

#1楼
发帖时间:2024-05-16 00:46:30   |   回复数:0
游客组