BILL36
隐世仙人♂

[2023] [大陆] [动作] [WEB-4K] 暗河传[第17集][国语配音/中文字幕].Tales.of.Dark.River.S01.2023.2160p.WEB-DL.H265.AAC-ZeroTV 0

-->

完整标题:暗河传[第17集][国语配音/中文字幕].Tales.of.Dark.River.S01.2023.2160p.WEB-DL.H265.AAC-ZeroTV 0.84GB



◎标  题 暗河传
◎译  名 少年歌行外传:暗河传 / Legend of Assassin / Tales of Dark River / Tales of The Killers Organization Called Dark River
◎片  名 少年歌行之暗河传
◎年  代 2023
◎产  地 中国大陆
◎类  别 动作 / 动画 / 武侠
◎语  言 汉语普通话
◎IMDb评分 7.6/10 (6人评价)
◎IMDb链接 https://www.imdb.com/title/tt27927838/
◎豆瓣链接 https://movie.douban.com/subject/35634675/
◎导  演 唐妍 Yan Tang
◎编  剧 周木楠 Munan Zhou
      唐妍 Yan Tang
◎演  员 刘明月 Mingyue Liu
      唐小喜 Xiaoxi Tang
      魏超 Chao Wei
      锦鲤 Jinwen Chen
      乔诗语 Shiyu Qiao
      林强 Qiang Lin
      赵铭洲 Mingzhou Zhao
      刘一鸣 Yiming Liu
      刘峥
      邵彤 Tong Shao
      张磊 Lei Zhang
      邵晨亮
      于鸣鹿 Minglu Yu
      蔡杰
      何冠男 Guannan He
      李望松 Wangsong Li
      李佳思 Jiasi Li
      高启帆 Qifan Gao
      林柏青 Baiqing Lin
      谢子溦
      王晨光 Chenguang Wang
      张震 Zhen Zhang
      李叶萌
      苏尚卿 Shangqing Su

◎简  介
    暗河,江湖最神秘的杀手组织,由苏、谢、慕三姓家族组成,三家最高统率称大家长。大家长身中奇毒,生命危在旦夕。暗河三家势力得知消息后,趁机发起叛乱。苏暮雨作为大家长护卫团蛛影的首领傀,一边找来药王谷神医白鹤淮为大家长医治,一边击退各家杀手护大家长周全。此时,他在暗河的好友苏昌河,却代表苏家加入了刺杀大家长的行动。

部分资源为软字幕,移动端推荐播放器:MxPlayer,nPlayer,infuse ,其他播放器请自行尝试。

部分资源为软字幕,电脑端推荐播放器:PotPlayer,完美解码,KMPLAYER,其他播放器请自行尝试。

下载端推荐纯BT下载软件:qBittorrent,Bitcomet,uTorrent ,其他下载软件请自行尝试。不支持吸血迅雷。

##### MediaInfo ######
General
Complete name : 暗河传.Tales.of.Dark.River.S01E17.2023.2160p.WEB-DL.H265.AAC-ZeroTV.mp4
Duration : 22 min 1 s
Overall bit rate mode : Variable
Overall bit rate : 5 457 kb/s

Video
ID : 1
Format : HEVC
Format/Info : High Efficiency Video Coding
Format profile : Main 10@L5@Main
Codec ID : hev1
Codec ID/Info : High Efficiency Video Coding
Duration : 22 min 1 s
Bit rate : 5 259 kb/s
Width : 3 840 pixels
Height : 2 160 pixels
Display aspect ratio : 16:9
Frame rate mode : Constant
Frame rate : 25.000 FPS
Color space : YUV
Chroma subsampling : 4:2:0
Bit depth : 10 bits
Bits/(Pixel*Frame) : 0.025
Stream size : 828 MiB (96%)
Color range : Limited
Color primaries : BT.709
Transfer characteristics : BT.709
Matrix coefficients : BT.709
Codec configuration box : hvcC

Audio
ID : 2
Format : AAC LC
Format/Info : Advanced Audio Codec Low Complexity
Codec ID : mp4a-40-2
Duration : 22 min 1 s
Bit rate mode : Variable
Bit rate : 192 kb/s
Maximum bit rate : 195 kb/s
Channel(s) : 2 channels
Channel layout : L R
Sampling rate : 44.1 kHz
Frame rate : 43.066 FPS (1024 SPF)
Compression mode : Lossy
Stream size : 30.2 MiB (4%)
Default : Yes
Alternate group : 1




1 个附件 售价 大小 下载 时间

Tales.of.Dark.River.S01.2023.2160p.WEB-DL.H265.AAC-ZeroTV[1LOU.ME].torrent 0 金币 4.62K 609 次 8天前

#1楼
发帖时间:2024-05-16 00:45:55   |   回复数:0
游客组