BILL36
隐世仙人♂

[2024] [大陆] [真人秀] [WEB-1080P] 是女儿是妈妈[第13集][国语配音/中文字幕].It's.A.Daughter.It's.Mom.S01.2024.1080p.WEB-DL.H264.AAC-

-->

完整标题:是女儿是妈妈[第13集][国语配音/中文字幕].It's.A.Daughter.It's.Mom.S01.2024.1080p.WEB-DL.H264.AAC-LelveTV 2.00GB



◎标  题 是女儿是妈妈
◎年  代 2024
◎产  地 中国大陆
◎类  别 真人秀
◎语  言 汉语普通话
◎IMDb链接 https://www.imdb.com/title//
◎豆瓣链接 https://movie.douban.com/subject/36643712/
◎演  员 王珞丹 Luodan Wang
      谢红武 Hongwu Xie
      陶昕然 Xinran Tao
      陶跃娣 Yuedi Tao
      欧阳娜娜 Nana Ouyang
      欧阳妮妮 Nini Ouyang
      欧阳娣娣 Didi
      傅娟 Sunny Fu
      赵小棠 Xiaotang Zhao
      岳彩晶 Caijing Yue

◎简  介
    首档解构“母女关系”的女性情感真人秀《是女儿是妈妈》,将邀请三对风格各异、状态不一、具有代表性的母女,通过“原生母女行”、“交换母女行”、“同辈群体行”以及“旅居养老行”四个阶段的交锋与对话来探究母女关系,引发互联网母女关系大解放,带来全新气质的家庭氛围感。

部分资源为软字幕,移动端推荐播放器:MxPlayer,nPlayer,infuse ,其他播放器请自行尝试。

部分资源为软字幕,电脑端推荐播放器:PotPlayer,完美解码,KMPLAYER,其他播放器请自行尝试。

下载端推荐纯BT下载软件:qBittorrent,Bitcomet,uTorrent ,其他下载软件请自行尝试。不支持吸血迅雷。

##### MediaInfo ######
General
Complete name : It's.A.Daughter.It's.Mom.S01E13.2024.1080p.WEB-DL.H264.AAC-LelveTV.mp4
Duration : 1 h 27 min
Overall bit rate mode : Variable
Overall bit rate : 3 276 kb/s

Video
ID : 1
Format : AVC
Format/Info : Advanced Video Codec
Format profile : High@L4
Format settings : CABAC / 4 Ref Frames
Format settings, CABAC : Yes
Format settings, Reference frames : 4 frames
Codec ID : avc1
Codec ID/Info : Advanced Video Coding
Duration : 1 h 27 min
Bit rate : 3 080 kb/s
Width : 1 920 pixels
Height : 1 080 pixels
Display aspect ratio : 16:9
Frame rate mode : Constant
Frame rate : 25.000 FPS
Color space : YUV
Chroma subsampling : 4:2:0
Bit depth : 8 bits
Scan type : Progressive
Bits/(Pixel*Frame) : 0.059
Stream size : 1.88 GiB (94%)
Writing library : 211111.mgtv.com
Color range : Limited
Color primaries : BT.709
Transfer characteristics : BT.709
Matrix coefficients : BT.709
Codec configuration box : avcC

Audio
ID : 2
Format : AAC LC
Format/Info : Advanced Audio Codec Low Complexity
Codec ID : mp4a-40-2
Duration : 1 h 27 min
Bit rate mode : Variable
Bit rate : 192 kb/s
Channel(s) : 2 channels
Channel layout : L R
Sampling rate : 44.1 kHz
Frame rate : 43.066 FPS (1024 SPF)
Compression mode : Lossy
Stream size : 119 MiB (6%)
Default : Yes
Alternate group : 1




1 个附件 售价 大小 下载 时间

It's.A.Daughter.It's.Mom.S01.2024.1080p.WEB-DL.H264.AAC-LelveTV[1LOU.ME].torrent 0 金币 7.54K 112 次 8天前

#1楼
发帖时间:2024-05-16 00:44:37   |   回复数:0
游客组