BILL36
隐世仙人♂

[2024] [大陆] [剧情] [WEB-4K] 星星的故乡[第01集][国语配音/中文字幕].Hometown.of.Stars.S01.2024.2160p.WEB-DL.H265.EDR.DDP2.0-L

-->

完整标题:星星的故乡[第01集][国语配音/中文字幕].Hometown.of.Stars.S01.2024.2160p.WEB-DL.H265.EDR.DDP2.0-LelveTV 3.54GB



◎标  题 星星的故乡
◎年  代 2024
◎产  地 中国大陆
◎类  别 剧情
◎语  言 汉语普通话
◎IMDb链接 https://www.imdb.com/title//
◎豆瓣链接 https://movie.douban.com/subject/36094277/
◎演  员 潘之琳 Zhilin Pan
      徐洋 Yang Xu
      马跃 Yue Ma
      郭涛 Tao Guo
      李乃文 Naiwen Li
      果靖霖 Jinglin Guo
      王劲松 Jinsong Wang
      吕一 Yi Lü
      刘敏涛 Mintao Liu
      黄品沅 Ruomeng Huang
      吴其江 Qijiang Wu

◎简  介
    2008年奥运前夕,年轻女孩欧阳易星成功晋级成为顶级乐团的大提琴手,圆了音乐梦。但此时她的父亲却突遭横祸,成了植物人,他倾注了半生心血的酒庄面临生死存亡之忧。易星在亲情与梦想间纠葛,她渐渐感受到了父亲当年对“戈壁变绿洲”的创业激情和坚守,酒庄在她心里成了父亲的化身。   年轻的天才酿酒师齐路为了酿出最好的葡萄酒来到贺兰山脚下,在这里跟易星相遇。两人克服困难保住了酒庄,还代表中国葡萄酒登上了世界舞台。   在一系列产业政策支持下,百万亩葡萄长廊汇聚起越来越多的葡萄酒“追梦人”,葡萄酒产业迎来了新的发展机遇。历经十五年的拼搏,易星酒庄在两个年轻人手里破茧成蝶;经过不懈的治疗,在床上躺了十多年的父亲也奇迹般苏醒。一家人的幸福瞬间在绿色的葡萄园里定格。

部分资源为软字幕,移动端推荐播放器:MxPlayer,nPlayer,infuse ,其他播放器请自行尝试。

部分资源为软字幕,电脑端推荐播放器:PotPlayer,完美解码,KMPLAYER,其他播放器请自行尝试。

下载端推荐纯BT下载软件:qBittorrent,Bitcomet,uTorrent ,其他下载软件请自行尝试。不支持吸血迅雷。

##### MediaInfo ######
General
Unique ID : 262075262075020493916842487668267739230 (0xC529DC079FE2B70383160766CAAEE85E)
Complete name : Hometown.of.Stars.S01E01.2024.2160p.WEB-DL.H265.EDR.DDP2.0-LelveTV.mkv
Duration : 45 min 25 s
Overall bit rate : 11.1 Mb/s

Video
ID : 1
Format : HEVC
Format/Info : High Efficiency Video Coding
Format profile : Main@L5@Main
Codec ID : V_MPEGH/ISO/HEVC
Duration : 45 min 25 s
Bit rate : 10.9 Mb/s
Width : 3 840 pixels
Height : 2 160 pixels
Display aspect ratio : 16:9
Frame rate mode : Constant
Frame rate : 25.000 FPS
Color space : YUV
Chroma subsampling : 4:2:0
Bit depth : 8 bits
Bits/(Pixel*Frame) : 0.052
Stream size : 3.44 GiB (97%)
Language : Chinese
Default : Yes
Forced : No

Audio #1
ID : 2
Format : AAC LC
Format/Info : Advanced Audio Codec Low Complexity
Codec ID : A_AAC-2
Duration : 45 min 25 s
Bit rate : 192 kb/s
Channel(s) : 2 channels
Channel layout : L R
Sampling rate : 44.1 kHz
Frame rate : 43.066 FPS (1024 SPF)
Compression mode : Lossy
Stream size : 61.6 MiB (2%)
Default : No
Forced : No

Audio #2
ID : 3
Format : E-AC-3
Format/Info : Enhanced AC-3
Commercial name : Dolby Digital Plus
Codec ID : A_EAC3
Duration : 45 min 25 s
Bit rate mode : Constant
Bit rate : 96.0 kb/s
Channel(s) : 2 channels
Channel layout : L R
Sampling rate : 48.0 kHz
Frame rate : 31.250 FPS (1536 SPF)
Compression mode : Lossy
Stream size : 31.2 MiB (1%)
Title : zh-ch [Dolby Digital Plus 2.0]
Language : Chinese
Service kind : Complete Main
Default : Yes
Forced : No




1 个附件 售价 大小 下载 时间

Hometown.of.Stars.S01.2024.2160p.WEB-DL.H265.EDR.DDP2.0-LelveTV[1LOU.ME].torrent 0 金币 11.36K 77 次 8天前

#1楼
发帖时间:2024-05-16 00:43:41   |   回复数:0
游客组