BILL36
隐世仙人♂

[2024] [大陆] [剧情] [WEB-4K] 披荆斩棘的大小姐[第23集][国语配音/中文字幕].2024.2160p.WEB-DL.H265.DDP-BlackTV 0.82GB

-->

完整标题:披荆斩棘的大小姐[第23集][国语配音/中文字幕].2024.2160p.WEB-DL.H265.DDP-BlackTV 0.82GB



◎标  题 披荆斩棘的大小姐
◎年  代 2024
◎产  地 中国大陆
◎类  别 剧情 / 爱情 / 古装
◎语  言 汉语普通话
◎IMDb链接 https://www.imdb.com/title//
◎豆瓣链接 https://movie.douban.com/subject/36317422/
◎导  演 李宏宇 Wang Yu Lee
◎编  剧 刘晶 Jing Liu
      刘紫坤 Zikun Liu
      风葙 Xiang Feng
      代钰 Yu Dai
◎演  员 徐璐 Lu Xu
      魏哲鸣 Zheming Wei
      刘些宁 Sally
      吴崇轩 Chongxuan Wu
      程金铭 Jinming Cheng
      杨舒亦 YiYi
      邓靖弘 Jinghong Deng

◎简  介
    温婉恬静的罗家大小姐罗爱莲,因突如其来的灾难,一夜间失去了一切,从人间富贵花被打入泥潭。经历重重困境,最终经历过九死一生的罗爱莲凤凰涅槃成为能文能武的镖局大小姐沈丹青(徐璐 饰),从此浴火重生,踏上手撕仇人的荆棘之路,开启了她的别样人生。沈丹青在复仇的过程中意外闯入了寻找丢失宝藏的徐将军(魏哲鸣 饰)视野,引起他的怀疑,这使沈丹青的这条复仇之路更加跌宕起伏、与众不同,两人在一次次惊心动魄的斗智斗勇中,相互成全,惺惺相惜,发生了一系列扣人心弦的故事。

部分资源为软字幕,移动端推荐播放器:MxPlayer,nPlayer,infuse ,其他播放器请自行尝试。

部分资源为软字幕,电脑端推荐播放器:PotPlayer,完美解码,KMPLAYER,其他播放器请自行尝试。

下载端推荐纯BT下载软件:qBittorrent,Bitcomet,uTorrent ,其他下载软件请自行尝试。不支持吸血迅雷。

##### MediaInfo ######
General
Unique ID : 97063851431182307819317341344863807233 (0x4905D15B4491740DDE287703E1F2E701)
Complete name : Lady.Revenger.Returns.From.the.Fire.S01E23.2024.2160p.WEB-DL.H265.DDP-BlackTV.mkv
Duration : 43 min 55 s
Overall bit rate : 2 667 kb/s

Video
ID : 1
Format : HEVC
Format/Info : High Efficiency Video Coding
Format profile : Main@L5@Main
Codec ID : V_MPEGH/ISO/HEVC
Duration : 43 min 55 s
Bit rate : 2 284 kb/s
Width : 3 840 pixels
Height : 1 632 pixels
Display aspect ratio : 2.35:1
Frame rate mode : Constant
Frame rate : 25.000 FPS
Color space : YUV
Chroma subsampling : 4:2:0
Bit depth : 8 bits
Bits/(Pixel*Frame) : 0.015
Stream size : 717 MiB (86%)
Writing library : Tencent-V265-1.6.9.1-p1k184g16lh64f4ra1.
Language : Chinese
Default : Yes
Forced : No
Color range : Limited
Color primaries : BT.709
Matrix coefficients : BT.709
VENDOR_ID : [0][0][0][0]

Audio #1
ID : 2
Format : E-AC-3
Format/Info : Enhanced AC-3
Commercial name : Dolby Digital Plus
Codec ID : A_EAC3
Duration : 43 min 55 s
Bit rate mode : Constant
Bit rate : 256 kb/s
Channel(s) : 2 channels
Channel layout : L R
Sampling rate : 48.0 kHz
Frame rate : 31.250 FPS (1536 SPF)
Bit depth : 32 bits
Compression mode : Lossy
Delay relative to video : -42 ms
Stream size : 80.4 MiB (10%)
Title : Mandarin [DDP2.0]
Language : Chinese
Service kind : Complete Main
Default : Yes
Forced : No
VENDOR_ID : [0][0][0][0]

Audio #2
ID : 3
Format : AAC LC
Format/Info : Advanced Audio Codec Low Complexity
Codec ID : A_AAC-2
Duration : 43 min 55 s
Bit rate : 125 kb/s
Channel(s) : 2 channels
Channel layout : L R
Sampling rate : 48.0 kHz
Frame rate : 46.875 FPS (1024 SPF)
Compression mode : Lossy
Delay relative to video : -42 ms
Stream size : 39.4 MiB (5%)
Title : Mandarin [AAC2.0]
Language : Chinese
Default : No
Forced : No
VENDOR_ID : [0][0][0][0]




1 个附件 售价 大小 下载 时间

2024.2160p.WEB-DL.H265.DDP-BlackTV[1LOU.ME].torrent 0 金币 4.56K 154 次 8天前

#1楼
发帖时间:2024-05-16 00:41:51   |   回复数:0
游客组