BILL36
隐世仙人♂

[2023] [大陆] [剧情] [WEB-4K] 小绿和小蓝 第三季[第10集][国语配音/中文字幕].BERYL.and.SAPPHIRE.S05.2024.2160p.WEB-DL.H264.AAC-Zer

-->

完整标题:小绿和小蓝 第三季[第10集][国语配音/中文字幕].BERYL.and.SAPPHIRE.S05.2024.2160p.WEB-DL.H264.AAC-ZeroTV 0.40GB



◎标  题 小绿和小蓝 第三季
◎年  代 2023
◎产  地 中国大陆
◎类  别 剧情 / 喜剧 / 动作 / 动画 / 奇幻 / 冒险
◎语  言 汉语普通话
◎IMDb链接 https://www.imdb.com/title//
◎豆瓣链接 https://movie.douban.com/subject/36597002/
◎导  演 陈钺晖 Yuehui Chen
      危天行
◎演  员 苏尚卿 Shangqing Su
      星潮 Xing Chao
      杨天翔 Tianxiang Yang
      谷江山 Jiangshan Gu

◎简  介
    讲述了小绿和小蓝分别化身成为了魔王小绿和骑士团团长小蓝,在一次次的对战日常中两人逐渐解除对立的人类世界与魔王世界之间的隔阂,敞开心扉了解彼此,走上冒险之旅的暖心故事。

部分资源为软字幕,移动端推荐播放器:MxPlayer,nPlayer,infuse ,其他播放器请自行尝试。

部分资源为软字幕,电脑端推荐播放器:PotPlayer,完美解码,KMPLAYER,其他播放器请自行尝试。

下载端推荐纯BT下载软件:qBittorrent,Bitcomet,uTorrent ,其他下载软件请自行尝试。不支持吸血迅雷。

##### MediaInfo ######
General
Complete name : 小绿和小蓝.BERYL.and.SAPPHIRE.S05E10.2024.2160p.WEB-DL.H264.AAC-ZeroTV.mp4
Duration : 8 min 1 s
Overall bit rate : 7 039 kb/s

Video
ID : 1
Format : AVC
Format/Info : Advanced Video Codec
Format profile : [email protected]
Format settings : CABAC / 5 Ref Frames
Format settings, CABAC : Yes
Format settings, Reference frames : 5 frames
Codec ID : avc1
Codec ID/Info : Advanced Video Coding
Duration : 8 min 1 s
Bit rate : 6 858 kb/s
Width : 3 840 pixels
Height : 2 160 pixels
Display aspect ratio : 16:9
Frame rate mode : Variable
Frame rate : 24.000 FPS
Minimum frame rate : 23.810 FPS
Maximum frame rate : 24.390 FPS
Color space : YUV
Chroma subsampling : 4:2:0
Bit depth : 8 bits
Scan type : Progressive
Bits/(Pixel*Frame) : 0.034
Stream size : 393 MiB (97%)
Color range : Limited
Color primaries : BT.709
Transfer characteristics : BT.709
Matrix coefficients : BT.709
Codec configuration box : avcC

Audio
ID : 2
Format : AAC LC
Format/Info : Advanced Audio Codec Low Complexity
Codec ID : mp4a-40-2
Duration : 8 min 1 s
Bit rate mode : Constant
Bit rate : 175 kb/s
Channel(s) : 2 channels
Channel layout : L R
Sampling rate : 48.0 kHz
Frame rate : 46.875 FPS (1024 SPF)
Compression mode : Lossy
Stream size : 10.0 MiB (2%)
Language : Chinese
Default : Yes
Alternate group : 1




1 个附件 售价 大小 下载 时间

BERYL.and.SAPPHIRE.S05.2024.2160p.WEB-DL.H264.AAC-ZeroTV[1LOU.ME].torrent 0 金币 3.52K 63 次 8天前

#1楼
发帖时间:2024-05-16 00:37:25   |   回复数:0
游客组