BILL36
超凡入圣№

[2024] [大陆] [剧情] [WEB-4K] 乡村爱情16[第22-23集][国语配音/中文字幕].Rural.Love.Story.S16.2024.2160p.WEB-DL.H265.AAC-Black

-->

完整标题:乡村爱情16[第22-23集][国语配音/中文字幕].Rural.Love.Story.S16.2024.2160p.WEB-DL.H265.AAC-BlackTV 2.31GB



◎标  题 乡村爱情16
◎年  代 2024
◎产  地 中国大陆
◎类  别 剧情
◎语  言 汉语普通话
◎IMDb链接 https://www.imdb.com/title//
◎豆瓣链接 https://movie.douban.com/subject/35579210/
◎编  剧 李海兵 Haibing Li
◎演  员 赵本山 Benshan Zhao
      唐鉴军 Jianjun Tang
      王小利 Xiaoli Wang
      刘小光 Xiaoguang Liu
      贺树峰 Shufeng He
      毕畅 Chang Bi
      曹桐睿 Tongrui Cao
      张添棋 Tianqi Zhang
      黄锶琦 Siqi Huang
      刘士双 Shishuang Liu

◎简  介
    屯里的老铁土生土长,象牙山的故事常看常新。

部分资源为软字幕,移动端推荐播放器:MxPlayer,nPlayer,infuse ,其他播放器请自行尝试。

部分资源为软字幕,电脑端推荐播放器:PotPlayer,完美解码,KMPLAYER,其他播放器请自行尝试。

##### MediaInfo ######
General
Unique ID : 273708420317863838171809179265087856735 (0xCDEA53037F3C2CEBC812047EB5B8605F)
Complete name : Rural.Love.Story.S16E22.2024.2160p.WEB-DL.H265.AAC-BlackTV.mkv
Duration : 47 min 11 s
Overall bit rate : 3 697 kb/s

Video
ID : 1
Format : HEVC
Format/Info : High Efficiency Video Coding
Format profile : Main@L5@Main
Codec ID : V_MPEGH/ISO/HEVC
Duration : 47 min 11 s
Bit rate : 3 503 kb/s
Width : 3 840 pixels
Height : 2 160 pixels
Display aspect ratio : 16:9
Frame rate mode : Constant
Frame rate : 25.000 FPS
Color space : YUV
Chroma subsampling : 4:2:0
Bit depth : 8 bits
Bits/(Pixel*Frame) : 0.017
Stream size : 1.15 GiB (95%)
Language : Chinese
Default : Yes
Forced : No
Color range : Limited
Color primaries : BT.709
Transfer characteristics : BT.709
Matrix coefficients : BT.709

Audio
ID : 2
Format : AAC LC
Format/Info : Advanced Audio Codec Low Complexity
Codec ID : A_AAC-2
Duration : 47 min 11 s
Bit rate : 192 kb/s
Channel(s) : 2 channels
Channel layout : L R
Sampling rate : 44.1 kHz
Frame rate : 43.066 FPS (1024 SPF)
Compression mode : Lossy
Stream size : 64.8 MiB (5%)
Title : Mandarin [AAC2.0]
Language : Chinese
Default : No
Forced : No

Menu
00:05:46.295 : zh:青莲让晓峰找郭二确认丈母娘怀孕一事
00:12:39.131 : zh:晓峰使出连环计 检验丈母娘是否怀孕
00:21:34.429 : zh:晓峰大呼破案了 丈母娘根本没怀孕?
00:39:49.586 : zh:广坤找长山出主意 长山建议其主动让贤


点击图片可查看大图

软字幕无法在截图上展现,HDR版本/杜比视界版本截图会出现颜色异常,请使用支持的设备播放!



1 个附件 售价 大小 下载 时间

Rural.Love.Story.S16.2024.2160p.WEB-DL.H265.AAC-BlackTV[1LOU.ME].torrent 0 金币 8.58K 322 次 14天前

#1楼
发帖时间:2024-02-13 10:26:17   |   回复数:0
游客组