BILL36
超凡入圣№

[2024] [日本] [动画] [WEB-1080P] 月光下的异世界之旅 第二季[第06集][简繁英字幕].2024.1080p.B-Global.WEB-DL.x264.AAC-ZeroTV 0.25GB

-->

完整标题:月光下的异世界之旅 第二季[第06集][简繁英字幕].2024.1080p.B-Global.WEB-DL.x264.AAC-ZeroTV 0.25GB



◎标  题 月光下的异世界之旅 第二季
◎片  名 月が導く異世界道中 第二幕
◎年  代 2024
◎产  地 日本
◎类  别 动画
◎语  言 日语
◎IMDb链接 https://www.imdb.com/title//
◎豆瓣链接 https://movie.douban.com/subject/35609723/
◎导  演 石平信司 Shinji Ishihira
◎编  剧 猪原健太 Kenta Ihara
◎演  员 花江夏树 Natsuki Hanae
      佐仓绫音 Ayane Sakura
      鬼头明里 Akari Kitō
      津田健次郎 Kenjirô Tsuda
      笹本菜津枝 Sasamoto Natsue
      月城亚美 Tsukishiro Ami

◎简  介
    #月光下的异世界之旅#动画第二季制作决定~   PV链接:   https://www.bilibili.com/video/BV1Kb4y117dm

部分资源为软字幕,移动端推荐播放器:MxPlayer,nPlayer,infuse ,其他播放器请自行尝试。

部分资源为软字幕,电脑端推荐播放器:PotPlayer,完美解码,KMPLAYER,其他播放器请自行尝试。

##### MediaInfo ######
General
Unique ID : 43638466295776859934512453146315341243 (0x20D4768064875B06693FE9567FE03DBB)
Complete name : Tsuki.ga.Michibiku.Isekai.Douchuu.S02E06.2024.1080p.WEB-DL.x264.AAC-ZeroTV.mkv
Duration : 23 min 40 s
Overall bit rate : 1 511 kb/s

Video
ID : 1
Format : AVC
Format/Info : Advanced Video Codec
Format profile : High@L5
Format settings : CABAC / 8 Ref Frames
Format settings, CABAC : Yes
Format settings, Reference frames : 8 frames
Codec ID : V_MPEG4/ISO/AVC
Duration : 23 min 40 s
Bit rate : 1 330 kb/s
Width : 1 920 pixels
Height : 1 080 pixels
Display aspect ratio : 16:9
Frame rate mode : Constant
Frame rate : 23.976 (24000/1001) FPS
Original frame rate : 23.976 (23976/1000) FPS
Color space : YUV
Chroma subsampling : 4:2:0
Bit depth : 8 bits
Scan type : Progressive
Bits/(Pixel*Frame) : 0.027
Stream size : 225 MiB (88%)
Title : Japanese
Language : Japanese
Default : Yes
Forced : No
Color range : Limited
Color primaries : BT.709
Transfer characteristics : BT.709
Matrix coefficients : BT.709

Audio
ID : 2
Format : AAC LC
Format/Info : Advanced Audio Codec Low Complexity
Codec ID : A_AAC-2
Duration : 23 min 40 s
Bit rate : 178 kb/s
Channel(s) : 2 channels
Channel layout : L R
Sampling rate : 48.0 kHz
Frame rate : 46.875 FPS (1024 SPF)
Compression mode : Lossy
Stream size : 30.1 MiB (12%)
Title : Japanese
Language : Japanese
Default : Yes
Forced : No

Text #1
ID : 3
Format : UTF-8
Codec ID : S_TEXT/UTF8
Codec ID/Info : UTF-8 Plain Text
Duration : 23 min 38 s
Bit rate : 62 b/s
Frame rate : 0.309 FPS
Count of elements : 439
Stream size : 10.8 KiB (0%)
Title : Chinese Simplified
Language : Chinese
Default : Yes
Forced : No

Text #2
ID : 4
Format : UTF-8
Codec ID : S_TEXT/UTF8
Codec ID/Info : UTF-8 Plain Text
Duration : 23 min 38 s
Bit rate : 62 b/s
Frame rate : 0.309 FPS
Count of elements : 439
Stream size : 10.8 KiB (0%)
Title : Chinese Traditional
Language : Chinese
Default : No
Forced : No

Text #3
ID : 5
Format : UTF-8
Codec ID : S_TEXT/UTF8
Codec ID/Info : UTF-8 Plain Text
Duration : 23 min 38 s
Bit rate : 75 b/s
Frame rate : 0.302 FPS
Count of elements : 428
Stream size : 13.0 KiB (0%)
Title : English
Language : English
Default : No
Forced : No

Text #4
ID : 6
Format : UTF-8
Codec ID : S_TEXT/UTF8
Codec ID/Info : UTF-8 Plain Text
Duration : 23 min 38 s
Bit rate : 190 b/s
Frame rate : 0.292 FPS
Count of elements : 414
Stream size : 33.0 KiB (0%)
Title : ???????
Language : Thai
Default : No
Forced : No

Text #5
ID : 7
Format : UTF-8
Codec ID : S_TEXT/UTF8
Codec ID/Info : UTF-8 Plain Text
Duration : 23 min 38 s
Bit rate : 83 b/s
Frame rate : 0.309 FPS
Count of elements : 438
Stream size : 14.4 KiB (0%)
Title : Bahasa Indonesia
Language : Indonesian
Default : No
Forced : No


点击图片可查看大图

软字幕无法在截图上展现,HDR版本/杜比视界版本截图会出现颜色异常,请使用支持的设备播放!



1 个附件 售价 大小 下载 时间

2024.1080p.B-Global.WEB-DL.x264.AAC-ZeroTV[1LOU.ME].torrent 0 金币 3.36K 49 次 14天前

#1楼
发帖时间:2024-02-13 10:23:04   |   回复数:0
游客组