BILL36
超凡入圣№

[2024] [日本] [科幻] [WEB-1080P] 奇异贤伴 黑色天使 第二季[第06集][简繁英字幕].Synduality.Noir.S02.2024.1080p.DSNP.WEB-DL.H264.AAC-Z

-->

完整标题:奇异贤伴 黑色天使 第二季[第06集][简繁英字幕].Synduality.Noir.S02.2024.1080p.DSNP.WEB-DL.H264.AAC-ZeroTV 0.88GB



◎标  题 奇异贤伴 黑色天使 第二季
◎译  名 Synduality: Noir Season 2
◎片  名 SYNDUALITY Noir 第2クール
◎年  代 2024
◎产  地 日本
◎类  别 科幻 / 动画 / 冒险
◎语  言 日语
◎IMDb链接 https://www.imdb.com/title//
◎豆瓣链接 https://movie.douban.com/subject/36575309/
◎导  演 山本裕介 Yûsuke Yamamoto
◎编  剧 青岛崇 Aoshima Takashi
◎演  员 大塚刚央 Takeo Otsuka
      古贺葵 Aoi Koga
      梶裕贵 Yûki Kaji
      石川由依 Yui Ishikawa
      广濑裕也 Yuya Hirose
      伊藤美来 Itou Miku
      滨野大辉 Daiki Hamano
      阪口大助 Daisuke Sakaguchi
      市道真央 Mao Ichimichi
      坂泰斗 Ban Taito
      大桥彩香 Ayaka Ohashi
      稻垣好 Inagaki Konomi
      小松史法 Komatsu Fuminori
      小林裕介 Yuusuke Kobayashi
      青山渚 Aoyama Nagisa

◎简  介
    时间来到2242年,一心想成为漂泊者的奏多遇见了诺娃,一名失去记忆的无用贤士。   然而,因为诺娃成功地击败终结者,奏多与她成为搭档后,他才明白成为出色漂泊者所该具备的确切条件。

部分资源为软字幕,移动端推荐播放器:MxPlayer,nPlayer,infuse ,其他播放器请自行尝试。

部分资源为软字幕,电脑端推荐播放器:PotPlayer,完美解码,KMPLAYER,其他播放器请自行尝试。

##### MediaInfo ######
General
Unique ID : 51960894932792872994270383522208867345 (0x27174DE9CDEF1ED69197B291FDA8E411)
Complete name : Synduality.Noir.S02E06.2024.1080p.DSNP.WEB-DL.H264.AAC-ZeroTV.mkv
Duration : 24 min 32 s
Overall bit rate mode : Variable
Overall bit rate : 5 136 kb/s

Video
ID : 1
Format : AVC
Format/Info : Advanced Video Codec
Format profile : High@L4
Format settings : CABAC / 4 Ref Frames
Format settings, CABAC : Yes
Format settings, Reference frames : 4 frames
Codec ID : V_MPEG4/ISO/AVC
Duration : 24 min 32 s
Bit rate mode : Variable
Bit rate : 5 005 kb/s
Maximum bit rate : 12.7 Mb/s
Width : 1 920 pixels
Height : 1 080 pixels
Display aspect ratio : 16:9
Frame rate mode : Constant
Frame rate : 23.976 (24000/1001) FPS
Color space : YUV
Chroma subsampling : 4:2:0
Bit depth : 8 bits
Scan type : Progressive
Bits/(Pixel*Frame) : 0.101
Stream size : 878 MiB (97%)
Default : Yes
Forced : No
Color range : Limited
Color primaries : BT.709
Transfer characteristics : BT.709
Matrix coefficients : BT.709

Audio
ID : 2
Format : AAC LC
Format/Info : Advanced Audio Codec Low Complexity
Codec ID : A_AAC-2
Duration : 24 min 32 s
Bit rate : 125 kb/s
Channel(s) : 2 channels
Channel layout : L R
Sampling rate : 48.0 kHz
Frame rate : 46.875 FPS (1024 SPF)
Compression mode : Lossy
Stream size : 22.0 MiB (2%)
Title : Japanese
Language : Japanese
Default : Yes
Forced : No

Text #1
ID : 3
Format : UTF-8
Codec ID : S_TEXT/UTF8
Codec ID/Info : UTF-8 Plain Text
Duration : 24 min 28 s
Bit rate : 61 b/s
Frame rate : 0.259 FPS
Count of elements : 381
Stream size : 11.1 KiB (0%)
Title : Chinese (Traditional)
Language : Chinese
Default : No
Forced : No

Text #2
ID : 4
Format : UTF-8
Codec ID : S_TEXT/UTF8
Codec ID/Info : UTF-8 Plain Text
Duration : 24 min 28 s
Bit rate : 64 b/s
Frame rate : 0.259 FPS
Count of elements : 380
Stream size : 11.6 KiB (0%)
Title : Dansk
Language : Danish
Default : No
Forced : No

Text #3
ID : 5
Format : UTF-8
Codec ID : S_TEXT/UTF8
Codec ID/Info : UTF-8 Plain Text
Duration : 24 min 28 s
Bit rate : 68 b/s
Frame rate : 0.259 FPS
Count of elements : 380
Stream size : 12.2 KiB (0%)
Title : Deutsch
Language : German
Default : No
Forced : No

Text #4
ID : 6
Format : UTF-8
Codec ID : S_TEXT/UTF8
Codec ID/Info : UTF-8 Plain Text
Duration : 24 min 28 s
Bit rate : 68 b/s
Frame rate : 0.272 FPS
Count of elements : 400
Stream size : 12.2 KiB (0%)
Title : English [CC]
Language : English
Default : No
Forced : No

Text #5
ID : 7
Format : UTF-8
Codec ID : S_TEXT/UTF8
Codec ID/Info : UTF-8 Plain Text
Duration : 24 min 28 s
Bit rate : 68 b/s
Frame rate : 0.255 FPS
Count of elements : 374
Stream size : 12.3 KiB (0%)
Title : Espa?ol
Language : Spanish
Default : No
Forced : No

Text #6
ID : 8
Format : UTF-8
Codec ID : S_TEXT/UTF8
Codec ID/Info : UTF-8 Plain Text
Duration : 24 min 28 s
Bit rate : 62 b/s
Frame rate : 0.251 FPS
Count of elements : 369
Stream size : 11.2 KiB (0%)
Title : Espa?ol (Latinoamericano)
Language : Spanish
Default : No
Forced : No

Text #7
ID : 9
Format : UTF-8
Codec ID : S_TEXT/UTF8
Codec ID/Info : UTF-8 Plain Text
Duration : 24 min 28 s
Bit rate : 62 b/s
Frame rate : 0.258 FPS
Count of elements : 379
Stream size : 11.1 KiB (0%)
Title : Fran?ais
Language : French
Default : No
Forced : No

Text #8
ID : 10
Format : UTF-8
Codec ID : S_TEXT/UTF8
Codec ID/Info : UTF-8 Plain Text
Duration : 24 min 28 s
Bit rate : 107 b/s
Frame rate : 0.258 FPS
Count of elements : 379
Stream size : 19.3 KiB (0%)
Title : Greek
Language : Greek
Default : No
Forced : No

Text #9
ID : 11
Format : UTF-8
Codec ID : S_TEXT/UTF8
Codec ID/Info : UTF-8 Plain Text
Duration : 24 min 28 s
Bit rate : 63 b/s
Frame rate : 0.255 FPS
Count of elements : 375
Stream size : 11.5 KiB (0%)
Title : Italiano
Language : Italian
Default : No
Forced : No

Text #10
ID : 12
Format : UTF-8
Codec ID : S_TEXT/UTF8
Codec ID/Info : UTF-8 Plain Text
Duration : 23 min 57 s
Bit rate : 94 b/s
Frame rate : 0.296 FPS
Count of elements : 426
Stream size : 16.5 KiB (0%)
Title : Japanese [CC]
Language : Japanese
Default : No
Forced : No

Text #11
ID : 13
Format : UTF-8
Codec ID : S_TEXT/UTF8
Codec ID/Info : UTF-8 Plain Text
Duration : 24 min 28 s
Bit rate : 71 b/s
Frame rate : 0.259 FPS
Count of elements : 380
Stream size : 12.8 KiB (0%)
Title : Korean
Language : Korean
Default : No
Forced : No

Text #12
ID : 14
Format : UTF-8
Codec ID : S_TEXT/UTF8
Codec ID/Info : UTF-8 Plain Text
Duration : 24 min 28 s
Bit rate : 66 b/s
Frame rate : 0.252 FPS
Count of elements : 370
Stream size : 11.9 KiB (0%)
Title : Magyar
Language : Hungarian
Default : No
Forced : No

Text #13
ID : 15
Format : UTF-8
Codec ID : S_TEXT/UTF8
Codec ID/Info : UTF-8 Plain Text
Duration : 24 min 28 s
Bit rate : 60 b/s
Frame rate : 0.210 FPS
Count of elements : 309
Stream size : 10.9 KiB (0%)
Title : Nederlands
Language : Dutch
Default : No
Forced : No

Text #14
ID : 16
Format : UTF-8
Codec ID : S_TEXT/UTF8
Codec ID/Info : UTF-8 Plain Text
Duration : 24 min 28 s
Bit rate : 60 b/s
Frame rate : 0.238 FPS
Count of elements : 349
Stream size : 10.9 KiB (0%)
Title : Norsk
Language : Norwegian Bokmal
Default : No
Forced : No

Text #15
ID : 17
Format : UTF-8
Codec ID : S_TEXT/UTF8
Codec ID/Info : UTF-8 Plain Text
Duration : 24 min 28 s
Bit rate : 57 b/s
Frame rate : 0.255 FPS
Count of elements : 374
Stream size : 10.3 KiB (0%)
Title : Polski
Language : Polish
Default : No
Forced : No

Text #16
ID : 18
Format : UTF-8
Codec ID : S_TEXT/UTF8
Codec ID/Info : UTF-8 Plain Text
Duration : 24 min 28 s
Bit rate : 65 b/s
Frame rate : 0.256 FPS
Count of elements : 376
Stream size : 11.7 KiB (0%)
Title : Português
Language : Portuguese
Default : No
Forced : No

Text #17
ID : 19
Format : UTF-8
Codec ID : S_TEXT/UTF8
Codec ID/Info : UTF-8 Plain Text
Duration : 24 min 28 s
Bit rate : 63 b/s
Frame rate : 0.258 FPS
Count of elements : 379
Stream size : 11.3 KiB (0%)
Title : Português (Brasil)
Language : Portuguese
Default : No
Forced : No

Text #18
ID : 20
Format : UTF-8
Codec ID : S_TEXT/UTF8
Codec ID/Info : UTF-8 Plain Text
Duration : 24 min 28 s
Bit rate : 64 b/s
Frame rate : 0.223 FPS
Count of elements : 327
Stream size : 11.6 KiB (0%)
Title : Roman?
Language : Romanian
Default : No
Forced : No

Text #19
ID : 21
Format : UTF-8
Codec ID : S_TEXT/UTF8
Codec ID/Info : UTF-8 Plain Text
Duration : 24 min 28 s
Bit rate : 59 b/s
Frame rate : 0.258 FPS
Count of elements : 379
Stream size : 10.6 KiB (0%)
Title : Sloven?ina
Language : Slovak
Default : No
Forced : No

Text #20
ID : 22
Format : UTF-8
Codec ID : S_TEXT/UTF8
Codec ID/Info : UTF-8 Plain Text
Duration : 24 min 28 s
Bit rate : 55 b/s
Frame rate : 0.225 FPS
Count of elements : 330
Stream size : 9.90 KiB (0%)
Title : Suomi
Language : Finnish
Default : No
Forced : No

Text #21
ID : 23
Format : UTF-8
Codec ID : S_TEXT/UTF8
Codec ID/Info : UTF-8 Plain Text
Duration : 24 min 28 s
Bit rate : 63 b/s
Frame rate : 0.259 FPS
Count of elements : 380
Stream size : 11.4 KiB (0%)
Title : Svenska
Language : Swedish
Default : No
Forced : No

Text #22
ID : 24
Format : UTF-8
Codec ID : S_TEXT/UTF8
Codec ID/Info : UTF-8 Plain Text
Duration : 24 min 28 s
Bit rate : 66 b/s
Frame rate : 0.256 FPS
Count of elements : 376
Stream size : 11.8 KiB (0%)
Title : Türk?e
Language : Turkish
Default : No
Forced : No

Text #23
ID : 25
Format : UTF-8
Codec ID : S_TEXT/UTF8
Codec ID/Info : UTF-8 Plain Text
Duration : 24 min 28 s
Bit rate : 57 b/s
Frame rate : 0.247 FPS
Count of elements : 363
Stream size : 10.3 KiB (0%)
Title : ?e?tina
Language : Czech
Default : No
Forced : No

Text #24
ID : 26
Format : UTF-8
Codec ID : S_TEXT/UTF8
Codec ID/Info : UTF-8 Plain Text
Duration : 24 min 28 s
Bit rate : 61 b/s
Frame rate : 0.259 FPS
Count of elements : 381
Stream size : 11.1 KiB (0%)
Title : Chinese (Simplified)
Language : Chinese
Default : Yes
Forced : No


点击图片可查看大图

软字幕无法在截图上展现,HDR版本/杜比视界版本截图会出现颜色异常,请使用支持的设备播放!



1 个附件 售价 大小 下载 时间

Synduality.Noir.S02.2024.1080p.DSNP.WEB-DL.H264.AAC-ZeroTV[1LOU.ME].torrent 0 金币 4.92K 224 次 14天前

#1楼
发帖时间:2024-02-13 10:18:43   |   回复数:0
游客组