BILL36
超凡入圣№

[2023] [美国] [剧情] [WEB-4K] 权欲第三章 第三季[第10集][无字片源].Power.Book.III.Raising.Kanan.S03.2160p.Stan.WEB-DL.DDP.5.1

-->

完整标题:权欲第三章 第三季[第10集][无字片源].Power.Book.III.Raising.Kanan.S03.2160p.Stan.WEB-DL.DDP.5.1.H.265-BlackTV 5.31GB



◎标  题 权欲第三章 第三季
◎片  名 Power Book III: Raising Kanan Season 3
◎年  代 2023
◎产  地 美国
◎类  别 剧情 / 犯罪
◎语  言 英语
◎IMDb评分 8.6/10 (98人评价)
◎IMDb链接 https://www.imdb.com/title/tt21650686/
◎豆瓣链接 https://movie.douban.com/subject/36317835/
◎导  演 罗伯·哈迪 Rob Hardy
◎编  剧 萨沙·潘 Sascha Penn
◎演  员 格兰特姆·科尔曼 Grantham Coleman
      托尼·丹扎 Tony Danza
      达马尼·瓦尔纳多 Damani Varnado

◎简  介
    在黑手党的伏击之后,拉克做出了一个改变人生的决定,但这对卡南来说太少了,太晚了,因为他希望铺设自己的道路,摆脱他母亲的谎言。

部分资源为软字幕,移动端推荐播放器:MxPlayer,nPlayer,infuse ,其他播放器请自行尝试。

部分资源为软字幕,电脑端推荐播放器:PotPlayer,完美解码,KMPLAYER,其他播放器请自行尝试。

##### MediaInfo ######
General
Unique ID : 194826205224120767641363655604314444179 (0x92922989D26E18D63626242C46821193)
Complete name : Power.Book.III.Raising.Kanan.S03E10.Made.You.Look.2160p.Stan.WEB-DL.DDP.5.1.H.265-BlackTV.mkv
Duration : 51 min 34 s
Overall bit rate : 14.7 Mb/s

Video
ID : 1
Format : HEVC
Format/Info : High Efficiency Video Coding
Format profile : Main@L5@High
Codec ID : V_MPEGH/ISO/HEVC
Duration : 51 min 34 s
Bit rate : 14.4 Mb/s
Width : 3 840 pixels
Height : 2 160 pixels
Display aspect ratio : 16:9
Frame rate mode : Constant
Frame rate : 23.976 (24000/1001) FPS
Color space : YUV
Chroma subsampling : 4:2:0
Bit depth : 8 bits
Bits/(Pixel*Frame) : 0.072
Stream size : 5.17 GiB (97%)
Language : English
Default : Yes
Forced : No
Color range : Limited
Color primaries : BT.709
Transfer characteristics : BT.709
Matrix coefficients : BT.709

Audio
ID : 2
Format : E-AC-3
Format/Info : Enhanced AC-3
Commercial name : Dolby Digital Plus
Codec ID : A_EAC3
Duration : 51 min 34 s
Bit rate mode : Constant
Bit rate : 384 kb/s
Channel(s) : 6 channels
Channel layout : L R C LFE Ls Rs
Sampling rate : 48.0 kHz
Frame rate : 31.250 FPS (1536 SPF)
Compression mode : Lossy
Stream size : 142 MiB (3%)
Language : English
Service kind : Complete Main
Default : Yes
Forced : No

Text
ID : 3
Format : UTF-8
Codec ID : S_TEXT/UTF8
Codec ID/Info : UTF-8 Plain Text
Duration : 51 min 12 s
Bit rate : 90 b/s
Frame rate : 0.341 FPS
Count of elements : 1049
Stream size : 33.9 KiB (0%)
Title : SDH
Language : English
Default : No
Forced : No


点击图片可查看大图

软字幕无法在截图上展现,HDR版本/杜比视界版本截图会出现颜色异常,请使用支持的设备播放!



1 个附件 售价 大小 下载 时间

Power.Book.III.Raising.Kanan.S03.2160p.Stan.WEB-DL.DDP.5.1.H.265-BlackTV[1LOU.ME].torrent 0 金币 16.03K 63 次 14天前

#1楼
发帖时间:2024-02-13 10:16:38   |   回复数:0
游客组