BILL36
超凡入圣№

[2024] [日本] [动画] [WEB-1080P] 愚蠢天使与恶魔共舞[第06集][中文字幕].Oroka.na.Tenshi.wa.Akuma.to.Odoru.S01.2024.1080p.WEB-DL.H2

-->

完整标题:愚蠢天使与恶魔共舞[第06集][中文字幕].Oroka.na.Tenshi.wa.Akuma.to.Odoru.S01.2024.1080p.WEB-DL.H264.AAC-ZeroTV 1.29GB



◎标  题 愚蠢天使与恶魔共舞
◎片  名 愚かな天使は悪魔と踊る
◎年  代 2024
◎产  地 日本
◎类  别 动画
◎语  言 日语
◎IMDb链接 https://www.imdb.com/title//
◎豆瓣链接 https://movie.douban.com/subject/36330293/
◎导  演 川崎逸朗 Itsurou Kawasaki
◎编  剧 川崎逸朗 Itsurou Kawasaki
◎演  员 内田雄马 Yuma Uchida
      佐仓绫音 Ayane Sakura
      梅田修一朗 Shuuichirou Umeda
      土岐隼一 Shunichi Toki
      东山奈央 Nao Toyama
      钉宫理惠 Rie Kugimiya

◎简  介
    漫画『愚蠢天使与恶魔共舞』动画化企划进行中

部分资源为软字幕,移动端推荐播放器:MxPlayer,nPlayer,infuse ,其他播放器请自行尝试。

部分资源为软字幕,电脑端推荐播放器:PotPlayer,完美解码,KMPLAYER,其他播放器请自行尝试。

##### MediaInfo ######
General
Unique ID : 17891483289399258854341294623360491907 (0xD75C63B41378996A6EB9A5630FF2183)
Complete name : Oroka.na.Tenshi.wa.Akuma.to.Odoru.S01E06.2024.1080p.WEB-DL.H264.AAC-ZeroTV.mkv
Duration : 23 min 40 s
Overall bit rate : 7 789 kb/s

Video
ID : 1
Format : AVC
Format/Info : Advanced Video Codec
Format profile : [email protected]
Format settings : CABAC / 1 Ref Frames
Format settings, CABAC : Yes
Format settings, Reference frames : 1 frame
Format settings, GOP : M=1, N=60
Codec ID : V_MPEG4/ISO/AVC
Duration : 23 min 40 s
Bit rate mode : Constant
Bit rate : 8 000 kb/s
Width : 1 920 pixels
Height : 1 080 pixels
Display aspect ratio : 16:9
Frame rate mode : Constant
Frame rate : 29.970 (30000/1001) FPS
Color space : YUV
Chroma subsampling : 4:2:0
Bit depth : 8 bits
Scan type : Progressive
Bits/(Pixel*Frame) : 0.129
Stream size : 1.27 GiB (98%)
Language : English
Default : Yes
Forced : No

Audio
ID : 2
Format : AAC LC
Format/Info : Advanced Audio Codec Low Complexity
Codec ID : A_AAC-2
Duration : 23 min 39 s
Bit rate : 125 kb/s
Channel(s) : 2 channels
Channel layout : L R
Sampling rate : 48.0 kHz
Frame rate : 46.875 FPS (1024 SPF)
Compression mode : Lossy
Stream size : 21.2 MiB (2%)
Title : 日语
Language : Japanese
Default : Yes
Forced : No

Text #1
ID : 3
Format : UTF-8
Codec ID : S_TEXT/UTF8
Codec ID/Info : UTF-8 Plain Text
Duration : 21 min 45 s
Bit rate : 52 b/s
Frame rate : 0.277 FPS
Count of elements : 362
Stream size : 8.40 KiB (0%)
Title : 简体中文
Language : Chinese
Default : No
Forced : No

Text #2
ID : 4
Format : UTF-8
Codec ID : S_TEXT/UTF8
Codec ID/Info : UTF-8 Plain Text
Duration : 21 min 45 s
Bit rate : 52 b/s
Frame rate : 0.277 FPS
Count of elements : 362
Stream size : 8.40 KiB (0%)
Title : 繁体中文
Language : Chinese
Default : No
Forced : No


点击图片可查看大图

软字幕无法在截图上展现,HDR版本/杜比视界版本截图会出现颜色异常,请使用支持的设备播放!



1 个附件 售价 大小 下载 时间

Oroka.na.Tenshi.wa.Akuma.to.Odoru.S01.2024.1080p.WEB-DL.H264.AAC-ZeroTV[1LOU.ME].torrent 0 金币 5.95K 91 次 14天前

#1楼
发帖时间:2024-02-13 10:16:01   |   回复数:0
游客组