BILL36
超凡入圣№

[2024] [日本] [动画] [WEB-1080P] 愚蠢天使与恶魔共舞[第06集][简繁英字幕].2024.1080p.B-Global.WEB-DL.x264.AAC-ZeroTV 0.29GB

-->

完整标题:愚蠢天使与恶魔共舞[第06集][简繁英字幕].2024.1080p.B-Global.WEB-DL.x264.AAC-ZeroTV 0.29GB



◎标  题 愚蠢天使与恶魔共舞
◎片  名 愚かな天使は悪魔と踊る
◎年  代 2024
◎产  地 日本
◎类  别 动画
◎语  言 日语
◎IMDb链接 https://www.imdb.com/title//
◎豆瓣链接 https://movie.douban.com/subject/36330293/
◎导  演 川崎逸朗 Itsurou Kawasaki
◎编  剧 川崎逸朗 Itsurou Kawasaki
◎演  员 内田雄马 Yuma Uchida
      佐仓绫音 Ayane Sakura
      梅田修一朗 Shuuichirou Umeda
      土岐隼一 Shunichi Toki
      东山奈央 Nao Toyama
      钉宫理惠 Rie Kugimiya

◎简  介
    漫画『愚蠢天使与恶魔共舞』动画化企划进行中

部分资源为软字幕,移动端推荐播放器:MxPlayer,nPlayer,infuse ,其他播放器请自行尝试。

部分资源为软字幕,电脑端推荐播放器:PotPlayer,完美解码,KMPLAYER,其他播放器请自行尝试。

##### MediaInfo ######
General
Unique ID : 287263604177710064411895757390052886380 (0xD81CF52D4244B0E0F1A1568D0294876C)
Complete name : Oroka.na.Tenshi.wa.Akuma.to.Odoru.S01E06.2024.1080p.WEB-DL.x264.AAC-ZeroTV.mkv
Duration : 23 min 40 s
Overall bit rate : 1 748 kb/s

Video
ID : 1
Format : AVC
Format/Info : Advanced Video Codec
Format profile : High@L5
Format settings : CABAC / 8 Ref Frames
Format settings, CABAC : Yes
Format settings, Reference frames : 8 frames
Codec ID : V_MPEG4/ISO/AVC
Duration : 23 min 40 s
Bit rate : 1 558 kb/s
Width : 1 920 pixels
Height : 1 080 pixels
Display aspect ratio : 16:9
Frame rate mode : Constant
Frame rate : 23.976 (24000/1001) FPS
Original frame rate : 23.976 (23976/1000) FPS
Color space : YUV
Chroma subsampling : 4:2:0
Bit depth : 8 bits
Scan type : Progressive
Bits/(Pixel*Frame) : 0.031
Stream size : 264 MiB (89%)
Title : Japanese
Language : Japanese
Default : Yes
Forced : No
Color range : Limited
Color primaries : BT.709
Transfer characteristics : BT.709
Matrix coefficients : BT.709

Audio
ID : 2
Format : AAC LC
Format/Info : Advanced Audio Codec Low Complexity
Codec ID : A_AAC-2
Duration : 23 min 40 s
Bit rate : 187 kb/s
Channel(s) : 2 channels
Channel layout : L R
Sampling rate : 48.0 kHz
Frame rate : 46.875 FPS (1024 SPF)
Compression mode : Lossy
Stream size : 31.6 MiB (11%)
Title : Japanese
Language : Japanese
Default : Yes
Forced : No

Text #1
ID : 3
Format : UTF-8
Codec ID : S_TEXT/UTF8
Codec ID/Info : UTF-8 Plain Text
Duration : 21 min 45 s
Bit rate : 52 b/s
Frame rate : 0.277 FPS
Count of elements : 362
Stream size : 8.40 KiB (0%)
Title : Chinese Simplified
Language : Chinese
Default : Yes
Forced : No

Text #2
ID : 4
Format : UTF-8
Codec ID : S_TEXT/UTF8
Codec ID/Info : UTF-8 Plain Text
Duration : 21 min 45 s
Bit rate : 52 b/s
Frame rate : 0.277 FPS
Count of elements : 362
Stream size : 8.40 KiB (0%)
Title : Chinese Traditional
Language : Chinese
Default : No
Forced : No

Text #3
ID : 5
Format : UTF-8
Codec ID : S_TEXT/UTF8
Codec ID/Info : UTF-8 Plain Text
Duration : 21 min 45 s
Bit rate : 53 b/s
Frame rate : 0.274 FPS
Count of elements : 358
Stream size : 8.45 KiB (0%)
Title : English
Language : English
Default : No
Forced : No

Text #4
ID : 6
Format : UTF-8
Codec ID : S_TEXT/UTF8
Codec ID/Info : UTF-8 Plain Text
Duration : 21 min 45 s
Bit rate : 145 b/s
Frame rate : 0.272 FPS
Count of elements : 355
Stream size : 23.2 KiB (0%)
Title : ???????
Language : Thai
Default : No
Forced : No

Text #5
ID : 7
Format : UTF-8
Codec ID : S_TEXT/UTF8
Codec ID/Info : UTF-8 Plain Text
Duration : 21 min 45 s
Bit rate : 61 b/s
Frame rate : 0.277 FPS
Count of elements : 362
Stream size : 9.86 KiB (0%)
Title : Bahasa Indonesia
Language : Indonesian
Default : No
Forced : No


点击图片可查看大图

软字幕无法在截图上展现,HDR版本/杜比视界版本截图会出现颜色异常,请使用支持的设备播放!



1 个附件 售价 大小 下载 时间

2024.1080p.B-Global.WEB-DL.x264.AAC-ZeroTV[1LOU.ME].torrent 0 金币 3.44K 56 次 14天前

#1楼
发帖时间:2024-02-13 10:12:51   |   回复数:0
游客组