BILL36
超凡入圣№

[2024] [日本] [动画] [WEB-1080P] 公主大人,接下来是“拷问”时间[第06集][中文字幕].2024.1080p.WEB-DL.H264.AAC-ZeroTV 1.19GB

-->

完整标题:公主大人,接下来是“拷问”时间[第06集][中文字幕].2024.1080p.WEB-DL.H264.AAC-ZeroTV 1.19GB



◎标  题 公主大人,接下来是“拷问”时间
◎译  名 公主大人 ,“拷问”的时间到了
◎片  名 姫様“拷問”の時間です
◎年  代 2024
◎产  地 日本
◎类  别 动画 / 奇幻
◎语  言 日语
◎IMDb链接 https://www.imdb.com/title//
◎豆瓣链接 https://movie.douban.com/subject/36464841/
◎导  演 金森阳子 Kanamori Youko
◎编  剧 笔安一幸 Kazuyuki Fudeyasu
◎演  员 白石晴香 Shiraishi Haruka
      小林亲弘 Chikahiro Kobayashi
      伊藤静 Shizuka Ito
      玄田哲章 Tesshô Genda

◎简  介
    在国王军与魔王军交战的数月后,身为国王的女儿兼国王军第三骑士团“骑士团团长”的公主沦为了魔王军的阶下囚!等待公主的是出人意料的重重拷问——!?史上最残酷的拷问时间正式拉开了序幕!

部分资源为软字幕,移动端推荐播放器:MxPlayer,nPlayer,infuse ,其他播放器请自行尝试。

部分资源为软字幕,电脑端推荐播放器:PotPlayer,完美解码,KMPLAYER,其他播放器请自行尝试。

##### MediaInfo ######
General
Unique ID : 300796054371576065740411235498929020452 (0xE24B367BD0C61BA76A70D73F4461DE24)
Complete name : Hime-sama.Goumon.no.Jikan.desu.S01E06.2024.1080p.WEB-DL.H264.AAC-ZeroTV.mkv
Duration : 23 min 40 s
Overall bit rate : 7 176 kb/s

Video
ID : 1
Format : AVC
Format/Info : Advanced Video Codec
Format profile : [email protected]
Format settings : CABAC / 1 Ref Frames
Format settings, CABAC : Yes
Format settings, Reference frames : 1 frame
Format settings, GOP : M=1, N=60
Codec ID : V_MPEG4/ISO/AVC
Duration : 23 min 40 s
Bit rate mode : Constant
Bit rate : 7 048 kb/s
Nominal bit rate : 8 000 kb/s
Width : 1 920 pixels
Height : 1 080 pixels
Display aspect ratio : 16:9
Frame rate mode : Constant
Frame rate : 29.970 (30000/1001) FPS
Color space : YUV
Chroma subsampling : 4:2:0
Bit depth : 8 bits
Scan type : Progressive
Bits/(Pixel*Frame) : 0.113
Stream size : 1.17 GiB (98%)
Language : English
Default : Yes
Forced : No

Audio
ID : 2
Format : AAC LC
Format/Info : Advanced Audio Codec Low Complexity
Codec ID : A_AAC-2
Duration : 23 min 39 s
Bit rate : 125 kb/s
Channel(s) : 2 channels
Channel layout : L R
Sampling rate : 48.0 kHz
Frame rate : 46.875 FPS (1024 SPF)
Compression mode : Lossy
Stream size : 21.2 MiB (2%)
Title : 日语
Language : Japanese
Default : Yes
Forced : No

Text #1
ID : 3
Format : UTF-8
Codec ID : S_TEXT/UTF8
Codec ID/Info : UTF-8 Plain Text
Duration : 23 min 27 s
Bit rate : 58 b/s
Frame rate : 0.277 FPS
Count of elements : 390
Stream size : 10.1 KiB (0%)
Title : 简体中文
Language : Chinese
Default : No
Forced : No

Text #2
ID : 4
Format : UTF-8
Codec ID : S_TEXT/UTF8
Codec ID/Info : UTF-8 Plain Text
Duration : 23 min 27 s
Bit rate : 58 b/s
Frame rate : 0.277 FPS
Count of elements : 390
Stream size : 10.1 KiB (0%)
Title : 繁体中文
Language : Chinese
Default : No
Forced : No


点击图片可查看大图

软字幕无法在截图上展现,HDR版本/杜比视界版本截图会出现颜色异常,请使用支持的设备播放!



1 个附件 售价 大小 下载 时间

2024.1080p.WEB-DL.H264.AAC-ZeroTV[1LOU.ME].torrent 0 金币 5.70K 119 次 14天前

#1楼
发帖时间:2024-02-13 10:07:15   |   回复数:0
游客组