BILL36
超凡入圣№

[2024] [美国] [剧情] [WEB-4K] 鳕鱼角 第三季[第03集][无字片源].Hightown.S03.2160p.Stan.WEB-DL.DDP.5.1.H.265-BlackTV 5.46GB

-->

完整标题:鳕鱼角 第三季[第03集][无字片源].Hightown.S03.2160p.Stan.WEB-DL.DDP.5.1.H.265-BlackTV 5.46GB



◎标  题 鳕鱼角 第三季
◎片  名 Hightown Season 3
◎年  代 2024
◎产  地 美国
◎类  别 剧情 / 犯罪
◎语  言 英语
◎IMDb链接 https://www.imdb.com/title/tt18361938/
◎豆瓣链接 https://movie.douban.com/subject/35789302/
◎演  员 阿特金斯·埃斯特蒙德 Atkins Estimond
      詹姆斯·戴尔 James Badge Dale

部分资源为软字幕,移动端推荐播放器:MxPlayer,nPlayer,infuse ,其他播放器请自行尝试。

部分资源为软字幕,电脑端推荐播放器:PotPlayer,完美解码,KMPLAYER,其他播放器请自行尝试。

##### MediaInfo ######
General
Unique ID : 106449393024940177383711807448197398107 (0x50156848AB8C01EC065999B7D9847E5B)
Complete name : Hightown.S03E03.Fall.Brook.2160p.Stan.WEB-DL.DDP.5.1.H.265-BlackTV.mkv
Duration : 51 min 17 s
Overall bit rate : 15.2 Mb/s

Video
ID : 1
Format : HEVC
Format/Info : High Efficiency Video Coding
Format profile : Main@L5@High
Codec ID : V_MPEGH/ISO/HEVC
Duration : 51 min 17 s
Bit rate : 14.8 Mb/s
Width : 3 840 pixels
Height : 2 160 pixels
Display aspect ratio : 16:9
Frame rate mode : Constant
Frame rate : 23.976 (23976/1000) FPS
Original frame rate : 23.976 (24000/1001) FPS
Color space : YUV
Chroma subsampling : 4:2:0
Bit depth : 8 bits
Bits/(Pixel*Frame) : 0.075
Stream size : 5.32 GiB (97%)
Language : English
Default : Yes
Forced : No
Color range : Limited
Color primaries : BT.709
Transfer characteristics : BT.709
Matrix coefficients : BT.709

Audio
ID : 2
Format : E-AC-3
Format/Info : Enhanced AC-3
Commercial name : Dolby Digital Plus
Codec ID : A_EAC3
Duration : 51 min 17 s
Bit rate mode : Constant
Bit rate : 384 kb/s
Channel(s) : 6 channels
Channel layout : L R C LFE Ls Rs
Sampling rate : 48.0 kHz
Frame rate : 31.250 FPS (1536 SPF)
Compression mode : Lossy
Stream size : 141 MiB (3%)
Language : English
Service kind : Complete Main
Default : Yes
Forced : No

Text
ID : 3
Format : UTF-8
Codec ID : S_TEXT/UTF8
Codec ID/Info : UTF-8 Plain Text
Duration : 49 min 27 s
Bit rate : 86 b/s
Frame rate : 0.369 FPS
Count of elements : 1094
Stream size : 31.3 KiB (0%)
Title : SDH
Language : English
Default : No
Forced : No


点击图片可查看大图

软字幕无法在截图上展现,HDR版本/杜比视界版本截图会出现颜色异常,请使用支持的设备播放!



1 个附件 售价 大小 下载 时间

Hightown.S03.2160p.Stan.WEB-DL.DDP.5.1.H.265-BlackTV[1LOU.ME].torrent 0 金币 16.35K 98 次 14天前

#1楼
发帖时间:2024-02-13 10:05:21   |   回复数:0
游客组